<?xml version="1.0" standalone="no"?>
<!DOCTYPE svg PUBLIC "-//W3C//DTD SVG 1.1//EN" "http://www.w3.org/Graphics/SVG/1.1/DTD/svg11.dtd" >
<svg xmlns="http://www.w3.org/2000/svg">
<metadata>Generated by IcoMoon</metadata>
<defs>
<font id="icomoon" horiz-adv-x="1024">
<font-face units-per-em="1024" ascent="960" descent="-64" />
<missing-glyph horiz-adv-x="1024" />
<glyph unicode="&#x20;" d="" horiz-adv-x="512" />
<glyph unicode="&#xe600;" d="M1000.499 636.713c-0.522 51.354-36.106 83.302-88.125 84.081-31.928 0.522-64.143 1.894-95.939-0.328-24.31-1.761-30.239 7.629-28.682 29.266 1.495 19.814 0.911 39.834-0.061 59.709-2.232 44.646-35.994 79.258-81.224 79.452-200.438 0.778-400.865 0.778-601.303 0.061-46.51-0.205-81.347-35.523-81.531-81.736-0.696-127.56-0.594-255.181 0.123-382.884 0.164-37.612 24.709-69.929 61.174-77.107 21.217-4.229 23.071-14.080 22.743-31.212-0.85-44.79-0.287-89.692-0.287-139.5 11.018 7.168 17.756 11.090 24.013 15.708 60.846 44.984 121.006 90.737 182.804 134.41 13.65 9.636 32.85 16.23 49.572 16.486 109.834 1.434 219.699 0.451 329.452 0.778 62.833 0.061 94.392 31.549 94.853 93.471 0.317 58.86-0.461 117.719 0.707 176.507 0.143 7.956 8.346 22.364 13.435 22.62 36.229 2.028 72.612 1.106 110.797 1.106v-378.972h-82.647v-82.903c-34.744 25.682-64 48.364-94.638 69.222-10.557 7.158-24.515 13.097-36.956 13.23-106.168 1.055-212.357 0.707-318.505 0.451-8.028-0.061-17.705 0.072-23.634-4.045-28.088-19.681-55.173-40.796-82.616-61.46 0.195-2.929 0.43-5.806 0.625-8.673 18.934-3 37.765-8.612 56.709-8.735 109.834-0.922 219.658 0.246 329.482-1.239 16.691-0.205 35.789-6.912 49.551-16.558 51.558-35.983 101.345-74.445 151.859-111.852 15.78-11.735 31.764-23.081 52.675-38.144 0 14.735 0 23.398-0.061 32.143 0.133 37.929 0.522 75.94-0.061 114.002-0.205 14.090 3.85 20.070 18.954 23.409 41.605 9.318 66.365 38.84 66.765 81.736 0.952 125.829 1.28 251.689-0.020 377.498zM702.618 436.204c0-1.618-1.167-3.308-3.389-9.38h-221.839c-50.319 0.061-100.618 0.922-150.866-0.461-12.646-0.317-26.788-5.212-37.284-12.37-30.7-20.675-59.935-43.694-94.74-69.56v81.48h-84.541c-0.942 10.035-2.284 17.797-2.284 25.416-0.195 109.445 0.297 218.88-0.645 328.264-0.164 20.081 5.571 26.46 26.163 26.399 181.996-0.717 363.95-0.451 545.905-0.256 14.213 0 24.566-0.778 24.443-19.62-0.717-116.685-0.604-233.298-0.922-349.911zM266.332 658.995c-25.917 0-46.899-20.797-46.899-46.418 0-25.61 20.982-46.336 46.899-46.336 25.907 0 46.899 20.726 46.899 46.336-0.010 25.631-20.992 46.418-46.899 46.418zM425.298 658.995c-25.866 0-46.889-20.797-46.889-46.418 0-25.61 21.023-46.336 46.889-46.336 25.917 0 46.899 20.726 46.899 46.336 0 25.631-20.982 46.418-46.899 46.418zM584.253 658.995c-25.815 0-46.807-20.797-46.807-46.418 0-25.61 20.992-46.336 46.807-46.336 25.948 0 46.93 20.726 46.93 46.336 0 25.631-20.982 46.418-46.93 46.418z" />
<glyph unicode="&#xe601;" d="M410.778 406.395c0-55.972 45.435-101.386 101.468-101.386 56.023 0 101.458 45.425 101.458 101.386 0 56.033-45.435 101.427-101.458 101.427-56.033 0.010-101.468-45.384-101.468-101.427zM555.295 298.086h-86.098c-71.629 0-129.925-58.286-129.925-129.853v-105.267l0.276-1.679 7.24-2.222c68.342-21.33 127.775-28.498 176.65-28.498 95.468 0 150.825 27.218 154.235 28.908l6.82 3.492h0.696v105.277c0.010 71.557-58.266 129.843-129.894 129.843zM305.091 538.225c90.44 0 163.707 73.247 163.707 163.594 0 90.378-73.267 163.625-163.707 163.625-90.409 0-163.717-73.247-163.717-163.625 0-90.348 73.308-163.594 163.717-163.594zM719.391 538.225c90.429 0 163.676 73.277 163.676 163.625 0 90.317-73.308 163.594-163.676 163.594-90.429 0-163.727-73.247-163.727-163.594s73.298-163.625 163.727-163.625zM432.691 314.020c-25.989 22.405-42.516 55.48-42.516 92.375 0 45.24 24.812 84.756 61.532 105.82-23.921 9.492-49.91 14.858-77.128 14.858h-138.916c-115.558 0-209.582-93.972-209.582-209.459v-169.8l0.41-2.642 11.725-3.635c108.216-33.823 202.424-45.466 280.453-45.885v72.591c0 70.38 48.64 129.413 114.022 145.777zM788.859 527.084h-138.865c-27.279 0-53.228-5.366-77.158-14.858 36.792-21.064 61.532-60.58 61.532-105.82 0-36.874-16.435-69.898-42.455-92.375 26.132-6.482 50.268-19.845 69.878-39.434 28.426-28.467 44.104-66.273 44.104-106.353v-72.591c77.988 0.42 172.206 12.063 280.422 45.885l11.735 3.635 0.42 2.642v169.81c-0.092 115.487-94.075 209.459-209.613 209.459z" />
<glyph unicode="&#xe602;" d="M1000.417 540.867l-47.401 67.594c-0.297-0.205-0.563-0.43-0.86-0.635-53.596-37.54-127.519-24.535-165.059 29.071-37.581 53.617-24.535 127.508 29.082 165.038 0.276 0.215 0.584 0.379 0.881 0.594l-47.36 67.574c-11.418 16.302-33.884 20.265-50.156 8.847l-187.341-131.174 40.98-58.532-44.421-31.078-41.032 58.491-451.471-316.16c-16.312-11.407-20.275-33.894-8.837-50.156l230.717-329.216c11.377-16.271 33.833-20.234 50.115-8.837l451.512 316.15-40.479 57.784 44.442 31.119 40.52-57.774 187.341 131.195c16.271 11.387 20.234 33.823 8.827 50.104zM560.343 615.178l44.462 31.119 53.176-75.93-44.421-31.119-53.217 75.93zM690.596 427.162l-49.060 70.011 44.442 31.119 49.080-70.011-44.462-31.119z" />
<glyph unicode="&#xe603;" d="M73.434 517.462c823.267 0 1108.671 85.436 1120.535 89.149 28.301 8.746 44.34 38.907 35.393 67.407-8.816 28.301-38.841 44.208-67.207 35.529-2.718-0.797-259.753-76.422-975.517-83.712-8.284 85.568-0.994 198.111 43.083 218.393 37.911 17.498 97.433-47.458 118.709-79.804 14.051-21.407 42.817-27.439 64.291-13.391s27.374 42.751 13.52 64.159c-1.126 1.59-26.247 40.035-63.959 73.042-77.746 68.068-140.78 54.483-171.535 40.299-60.25-27.772-93.655-97.365-99.024-206.861-1.725-36.322-0.132-70.786 1.923-96.505-6.827 0-13.521 0-20.283 0-29.761 0-53.885-24.128-53.885-53.885 0.066-29.694 24.191-53.819 53.951-53.819zM73.434 465.962c0 0-7.755-265.056 116.521-342.736l-13.722-29.426c-16.637-35.989-0.994-78.74 34.996-95.443 9.744-4.507 20.149-6.693 30.223-6.693 27.177 0 53.225 15.31 65.354 41.621l31.881 68.798c176.304 0 341.277 0 473.175 0 16.238 0 32.214 0.994 47.524 2.782l33.206-71.582c12.265-26.249 38.178-41.623 65.285-41.623 10.077 0 20.548 2.119 30.291 6.693 35.989 16.766 51.698 59.455 34.863 95.443l-26.247 56.736c129.644 76.554 196.455 234.167 181.146 402.189 0 0-279.904-86.763-1104.497-86.763z" horiz-adv-x="1250" />
<glyph unicode="&#xe604;" d="M194.301 939.865c221.577 0 443.149 0 664.659 0 70.523 0 214.483 13.722 255.51-15.973 51.233-37.116 32.479-234.434 31.947-325.9-1.127 0-2.119 0-3.248 0-15.973 15.31-48.981 26.446-70.258 35.196-9.61 2.119-19.222 4.175-28.765 6.365-9.542 7.29-5.5 41.757-9.678 54.352-7.489 22.933-26.247 51.235-44.739 63.827-68.734 47.392-237.418 53.287-306.677 3.182-22.139-16.107-30.82-41.691-41.426-70.258-2.119 0-4.244 0-6.429 0-25.188 123.347-255.246 133.62-351.42 63.893-21.606-15.643-37.249-47.259-44.674-76.685-4.111-15.644 0.795-25.188-6.495-35.196-12.197-9.082-29.429-9.545-44.674-15.973-19.22-9.545-38.309-19.156-57.463-28.765 0 91.601 0 183.197 0 274.8 7.49 9.877 8.683 24.988 15.907 35.196 11.532 15.907 32.545 19.683 47.92 31.947zM1258.366 329.489c-412.13 0-824.394 0-1236.594 0-0.267 80.596 23.463 124.542 57.532 169.478 60.645 80.133 207.923 101.277 325.9 127.79 36.189 2.187 72.446 4.24 108.699 6.43 34.931 7.223 117.647 10.141 150.060 3.114 31.018-6.694 72.112 2.652 99.088-3.181 15.973 0 31.947 0 47.986 0 33.074-7.357 70.455-4.441 105.453-12.794 169.943-40.698 340.349-83.315 341.875-290.837zM18.593 272.092c413.126 0 826.515 0 1239.774 0 0-93.718 0-187.44 0-281.226-62.836 0-125.734 0-188.569 0 0 47.986 0 95.843 0 143.83-287.524 0-575.181 0-862.704 0 0-47.986 0-95.842 0-143.83-62.834 0-125.733 0-188.566 0 0.066 93.786 0.066 187.507 0.066 281.226z" horiz-adv-x="1278" />
<glyph unicode="&#xe605;" d="M1128.218 527.007c-9.942 19.222-37.119 41.162-37.119 41.162l-112.014 292.363c-23.264 55.412-91.666 84.573-121.558 84.573h-549.2c-29.826 0-98.225-29.163-121.492-84.573l-112.012-292.363c0 0-27.107-21.938-37.116-41.162-9.877-19.222-20.747-36.32-20.747-165.967 0-126.595 26.048-171.534 57.068-187.044l24.59-13.521v-117.382c0-38.045 9.345-49.311 46.398-49.311h83.115c37.116 0 46.331 11.268 46.331 49.311v117.382h616.871v-117.382c0-38.045 9.345-49.311 46.398-49.311h83.181c37.052 0 46.331 11.268 46.331 49.311v117.382l24.525 13.521c31.152 15.51 57.134 60.449 57.134 187.044 0.066 129.646-10.87 146.745-20.679 165.967zM236.020 300.193c-39.834 0-72.247 32.411-72.247 72.246 0 39.769 32.41 72.247 72.247 72.247s72.247-32.545 72.247-72.247c0-39.834-32.479-72.247-72.247-72.247zM932.561 300.193c-39.769 0-72.246 32.411-72.246 72.246 0 39.769 32.479 72.247 72.247 72.247 39.901 0 72.313-32.545 72.313-72.247 0-39.834-32.41-72.247-72.313-72.247zM1013.026 568.166h-860.122c0 0-20.546-1.923-14.316 20.149 5.236 18.624 79.137 202.155 94.716 252.593 6.298 17.364 42.022 57.2 90.209 54.151h518.844c48.318 2.983 83.911-36.851 90.209-54.151 15.51-50.442 89.478-233.968 94.715-252.593 6.295-22.070-14.25-20.149-14.25-20.149z" horiz-adv-x="1166" />
<glyph unicode="&#xe606;" d="M1119.497 821.026c-22.933-9.942-108.434 7.887-143.298 15.841 3.58-12.595 5.633-25.85 5.633-39.634 0-78.873-63.959-142.899-142.835-142.899s-143.033 64.028-143.033 142.9c0 13.853 2.119 27.241 5.831 39.966-34.067-7.821-146.083-26.247-169.345-16.172-29.033 12.659 121.293 86.294 142.835 87.091 21.671 0.73 46.592-26.977 46.592-26.977l-0.399-2.585c25.85 37.185 68.666 61.508 117.382 61.508 47.588 0 89.743-23.397 115.66-59.255l-0.066 0.268c0 0 25.053 27.703 46.595 26.976 21.675-0.661 147.408-74.366 118.443-87.027zM341.1 654.331c-78.94 0-142.899 64.028-142.899 142.9s63.961 142.899 142.899 142.899c78.875 0 142.835-63.959 142.835-142.899s-63.961-142.9-142.835-142.9zM784.315 571.747h124.409l187.308 173.655 72.91-78.608-175.509-162.719 55.409-325.303h-67.010v-187.573h-107.109v187.573h-62.569v-187.573h-107.109v187.573h-99.42l87.889 332.729-82.849 84.837-135.677-102.933v-502.206h-107.175v187.573h-62.436v-187.573h-107.242v507.904l-180.879 167.692 72.909 78.608 187.309-173.655h124.474l199.572 163.58z" horiz-adv-x="1186" />
<glyph unicode="&#xe607;" d="M264.012-9.136h445.205v952.912h-445.205v-952.912zM610.591 143.839h-98.094v97.762h98.094v-97.762zM461.793 293.37v99.289h99.949v-99.289h-99.949zM610.591 444.421h-98.094v96.172h98.094v-96.172zM462.524 592.357v100.878h98.161v-100.878h-98.162zM512.431 842.832h98.094v-99.356h-98.094v99.356zM363.234 842.832h99.686v-99.356h-99.686v99.356zM363.234 542.186h99.686v-97.763h-99.686v97.762zM363.234 241.602h99.686v-97.762h-99.686v97.762zM16.323-9.136h198.708v653.789h-198.708v-653.789zM66.298 591.696h99.155v-97.696h-99.155v97.696zM66.298 392.723h99.155v-99.289h-99.155v99.289zM66.298 241.602h99.687v-97.697h-99.687v97.697zM1056.593 543.378v151.649h-50.571v99.356h-48.914v98.16h-48.716v-98.16h-50.704v-99.356h-48.782v-151.649h-49.114v-552.515h346.049v552.515h-49.247zM907.861 143.641h-99.75v97.762h99.75v-97.762zM907.795 393.983h-99.154v98.492h99.154v-98.492zM1055.667 293.168h-97.762v100.349h97.762v-100.349z" horiz-adv-x="1122" />
<glyph unicode="&#xe608;" d="M133.612 109.441c-13.654-13.588-20.481-31.418-20.481-49.247s6.828-35.657 20.481-49.311c13.588-13.653 31.417-20.481 49.245-20.481 17.764 0 35.127 6.627 48.916 19.95l274.335 343.862-59.919 67.739-312.577-312.511zM1005.529 908.716l-36.255 36.387-439.175-439.241 137.266-121.293c3.71 2.255 7.158 4.905 10.406 8.020l327.755 433.938c13.059 12.991 17.036 26.247 17.036 41.094 0 14.913-5.635 29.761-17.034 41.092zM459.577 534.761l35.328 35.262c18.691 18.757 14.251 53.754-10.207 78.21l-288.65 288.651-35.659-35.461 255.246-255.113-36.322-36.387-255.179 255.179-37.249-37.249 255.179-255.179-36.387-36.322-255.047 255.179-35.529-35.591 288.719-288.717c24.39-24.39 59.388-28.897 78.212-10.14l35.196 35.196 425.454-481.725c13.653-13.323 31.285-20.017 48.914-20.017 17.962 0 35.791 6.758 49.38 20.413 13.653 13.652 20.348 31.484 20.348 49.311 0 17.762-6.694 35.393-20.017 48.98l-481.725 425.521z" horiz-adv-x="1038" />
<glyph unicode="&#xe609;" d="M1081.448 214.629l28.036-223.762-204.212 95.774-53.423-25.053-28.434 227.143 166.23 177.435 24.525-44.409 221.377-42.55-154.101-164.573zM993.691 590.766l-227.673-242.982 41.358-330.34-301.443 141.378-301.443-141.378 41.291 330.34-227.54 242.982 326.962 62.768 160.729 291.568 160.731-291.503z" horiz-adv-x="1254" />
<glyph unicode="&#xe60a;" d="M443.117 760.304h-94.823c-33.181 0-45.111-19.015-45.111-45.050v-90.099h139.934l-16.654-158.886h-123.28v-443.413h-187.345v443.417h-94.822v158.948h94.822v90.098c0 106.691 35.604 191.945 187.345 196.793h139.934v-151.803z" horiz-adv-x="464" />
<glyph unicode="&#xe60b;" d="M220.013 664.671c76.025 0 137.73 61.641 137.73 137.731 0 76.022-61.708 137.73-137.731 137.73-76.089 0-137.795-61.641-137.795-137.73 0-76.156 61.708-137.731 137.795-137.731zM627.636 335.721c54.747 0 99.088 44.409 99.088 99.088s-44.34 99.021-99.088 99.021c-54.615 0-98.956-44.34-98.956-99.021-0.066-54.682 44.274-99.088 98.956-99.088zM719.503 294.162c-14.449 14.449-31.484 23.199-93.389 23.199-61.839 0-74.433-16.37-92.13-23.199l-89.942-26.844c-0.529 16.505-10.207 306.613-38.31 334.915-29.163 29.099-63.763 46.595-188.899 46.595-125.007 0-158.675-18.956-186.315-46.595s-18.294-322.256-18.294-322.256l61.243 145.286 38.375-432.812 110.887 221.577 103.53-221.577 36.587 432.81 80.93-158.079-0.994-0.331 112.346-29.23 19.091-245.172 54.814 109.629 51.168-109.629 18.096 214.084 30.223-71.781c0.066 0 5.435 145.088-9.013 159.405z" horiz-adv-x="740" />
<glyph unicode="&#xe60c;" d="M968.487 415.986v108.636l-15.442 4.905-116.123 37.978-31.088 74.832 59.586 126.197-76.752 76.752-123.347-62.569-74.895 30.953-47.058 131.435h-108.569l-5.037-15.31-37.911-116.256-74.898-31.020-126.197 59.586-76.752-76.818 7.29-14.384 55.345-109.095-30.955-74.764-131.367-47.057v-108.567l131.502-42.949 31.085-74.831-59.586-126.263 76.685-76.688 14.45 7.293 109.033 55.277 74.896-30.887 47.057-131.366h108.567l5.037 15.18 37.911 116.322 74.895 31.088 126.132-59.586 76.818 76.688-7.29 14.45-55.477 109.029 31.088 74.831 131.369 46.991zM491.399 315.97c-84.043 0-152.047 68.071-152.047 152.047s68.004 151.979 152.047 151.979 151.979-68.068 151.979-151.979-67.937-152.047-151.979-152.047z" horiz-adv-x="984" />
<glyph unicode="&#xe60d;" d="M838.177 760.511v-116.586h-61.044v116.586h-115.726v58.858h115.726v120.034h61.044v-120.034h117.781v-58.858h-117.781zM479.4 875.707c51.765-29.562 79.206-90.208 79.206-157.216 0-61.508-34.135-111.019-82.452-148.601-47.126-36.785-56.075-52.098-56.075-83.316 0-26.579 56.337-66.214 82.19-85.568 90.143-67.342 107.044-109.759 108.369-194.003 1.655-112.014-113.603-209.645-298.529-209.645-162.122 0-297.997 73.637-297.997 178.692 0 158.809 112.544 210.108 274.73 210.108 17.695 0 33.868 0.399 50.639 0.399-22.337 21.475-40.099 39.966-40.099 72.511 0 19.355 6.099 37.78 14.781 54.218-8.816-0.53-17.897-1.191-26.977-1.191-133.29 0-210.838 93.322-210.838 210.241 0 114.532 118.045 217.136 259.621 217.136 73.042 0 279.108 0 279.108 0l-62.436-63.764h-73.241zM316.086 312.259c-103.264 0-188.566-38.707-188.566-111.485 0-74.036 76.091-134.615 181.475-134.615 148.070 0 199.702 56.669 199.702 130.903 0 9.081-0.268 17.962-3.381 26.247-35.725 88.949-150.855 88.949-189.231 88.949zM441.091 707.157c-12.329 92.86-58.79 162.851-130.109 165.038-71.382 2.054-133.953-62.77-121.492-155.76 12.329-93.058 80.133-155.362 151.517-157.614 71.452-2.054 112.412 55.211 100.083 148.334z" horiz-adv-x="970" />
<glyph unicode="&#xe60e;" d="M463.722 940.066h-47.391c-11.664 0-21.142-9.545-21.142-21.079v-200.233h-186.316c-8.684 0-19.554-1.987-29.826-5.17-10.406-3.246-20.48-7.623-27.505-12.462l-125.137-85.9c-7.092-4.839-10.606-11.2-10.606-17.696 0-6.364 3.514-12.724 10.606-17.629l125.137-85.831c7.026-4.839 17.1-9.28 27.505-12.462 10.272-3.181 21.142-5.169 29.826-5.169h186.316v-463.764c0-11.6 9.545-21.010 21.077-21.010h47.458c11.664 0 21.077 9.612 21.077 21.010v906.319c0 11.6-9.413 21.076-21.077 21.076zM1059.054 720.544l-125.204 85.901c-7.026 4.839-16.967 9.346-27.44 12.46-10.406 3.248-21.143 5.238-29.891 5.238h-360.17l42.288-242.387h317.948c8.746 0 19.487 2.054 29.891 5.169 10.406 3.184 20.413 7.625 27.439 12.46l125.136 85.901c7.093 4.905 10.538 11.267 10.538 17.697s-3.38 12.79-10.538 17.566z" horiz-adv-x="1086" />
<glyph unicode="&#xe60f;" d="M641.079 721.674c8.020-7.954 11.534-18.624 11.534-31.881 0-16.77-6.231-30.954-17.763-43.347-11.466-12.395-25.65-18.624-42.486-18.624h-0.795c-13.324 0-23.926 4.441-31.881 13.257-7.954 8.948-12.394 20.414-12.394 35.461 0 14.116 5.302 27.439 15.907 39.834s24.79 18.624 43.346 19.487v0.928c14.186 0 25.716-5.369 34.532-15.11zM471.134 463.244l-14.116 39.769 2.652 2.717c26.579 24.854 53.091 45.139 80.531 61.973s48.716 24.72 63.695 24.72c8.813 0 15.045-3.447 19.42-10.606 3.513-6.959 5.302-15.907 5.302-26.512 0-18.561-1.788-35.394-5.302-50.505l-40.762-166.363c-1.724-8.020-2.652-14.252-2.652-18.623v-4.374c2.652 0.795 9.742 5.302 22.138 13.257s22.138 15.907 30.159 23.861l4.374 3.579 15.973-33.737 1.724-3.445h-2.585c-23.861-26.512-50.374-48.716-78.74-65.552-28.303-16.766-49.577-25.649-62.834-25.649-9.677 0-17.695 2.652-23.067 8.881-6.229 6.166-8.816 16.766-8.816 31.814 0 17.695 1.79 35.327 5.302 53.158l38.044 160.995c1.788 8.881 2.652 15.11 2.652 18.691-11.466-4.441-27.44-15.907-47.788-34.467l-5.302-3.579zM934.038 164.587c-110.026-133.754-277.582-191.418-437.252-168.021-10.803 31.018-16.371 26.71-38.64 75.296 36.586-10.802 61.506-11.93 101.542-11.93 223.564 0 404.576 181.145 404.576 404.576 0 223.498-181.077 404.641-404.576 404.641-64.158 0-124.141-16.305-178.028-42.949 0.529 37.714 11.6 53.489 12.724 85.436 155.228 59.917 337.299 37.050 475.031-76.355 202.95-167.357 232.048-467.674 64.624-670.689zM200.514 252.076l121.757 11.729c34.93-43.678 75.229-167.225 75.229-167.225-75.892-70.655-172.992-78.873-249.413-1.060-32.809 31.484-215.479 273.87-88.284 623.899 27.374 72.775 126.925 144.624 208.718 111.552 83.514-33.075 41.291-152.911 2.916-219.055l-104.722-10.208c0 0-31.218-34.663-17.299-178.161 13.853-143.499 51.102-171.468 51.102-171.468z" horiz-adv-x="1058" />
<glyph unicode="&#xe610;" d="M828.199-8.274c-1.126 193.406-53.225 332.397-128.519 427.839-76.883 97.099-178.759 150.191-279.968 167.622-147.54 25.452-225.222 64.821-267.705 102.337-23.199 23.397-33.671 88.685-33.671 88.685s62.371-38.445 87.423-52.295c31.482-21.409 100.813-56.339 224.558-77.549 114.996-19.684 231.251-80.596 318.014-190.291 15.708-19.819 30.355-41.291 43.877-64.293 102.271 223.963-119.37 396.091-369.379 429.166-274.666 36.32-406.431 120.828-406.431 120.828-26.247-265.786 70.388-554.367 298.195-648.42 163.844-67.671 292.694-81.393 383.166-20.413 37.185-79.867 59.917-171.998 60.052-279.77v-3.843l70.39 0.399z" horiz-adv-x="840" />
<glyph unicode="&#xe611;" d="M398.033-9.136v228.866h739.159v-228.866h-739.157zM398.033 580.692h739.159v-228.934h-739.157v228.934zM398.033 941.654h739.092v-228.999h-739.092v228.999zM136.69-8.274c-66.147 0-119.9 53.687-119.9 119.836 0 66.214 53.754 119.9 119.9 119.9 66.281 0 119.968-53.687 119.968-119.9-0.066-66.147-53.687-119.836-119.968-119.836zM136.69 360.577c-66.147 0-119.9 53.62-119.9 119.901 0 66.213 53.754 119.966 119.9 119.966 66.281 0 119.968-53.754 119.968-119.966-0.066-66.282-53.687-119.901-119.968-119.901zM136.69 705.364c-66.147 0-119.9 53.687-119.9 119.836 0 66.213 53.754 119.9 119.9 119.9 66.281 0 119.968-53.687 119.968-119.9-0.066-66.149-53.687-119.836-119.968-119.836z" horiz-adv-x="1154" />
<glyph unicode="&#xe612;" d="M577.815-5.621v399.008h399.074v-399.006h-399.074zM577.815 945.103h399.074v-399.006h-399.074v399.006zM14.432 393.385h399.074v-399.006h-399.074v399.006zM14.432 945.103h399.074v-399.006h-399.074v399.006z" horiz-adv-x="992" />
<glyph unicode="&#xe613;" d="M224.598-9.136c-52.957 0-106.446 20.878-147.274 61.641v0c-40.762 40.698-61.641 94.186-61.641 147.274v0c-0.066 49.908 18.823 100.214 56.669 138.062v0l8.684 8.75 522.752 522.817c49.711 49.842 115.859 74.565 181.676 74.433v0c69.991 0.066 140.713-27.508 194.732-81.524v0c53.954-53.954 81.591-124.74 81.524-194.732v0c0.066-65.884-24.59-131.899-74.367-181.676v0l-471.652-471.518-65.285 65.354 471.584 471.52c31.615 31.748 47.325 73.171 47.392 116.322v0c0 45.865-17.962 92.924-54.483 129.381v0c-36.455 36.452-83.514 54.483-129.379 54.483v0c-43.282-0.066-84.707-15.775-116.388-47.325v0l-531.436-531.636c-19.751-19.684-29.495-45.403-29.629-72.711v0c0.066-28.964 11.399-58.724 34.599-81.989v0c23.33-23.264 53.091-34.532 81.923-34.532v0c27.307 0.066 53.024 9.809 72.842 29.495v0l400.863 400.995c7.49 7.424 11.069 16.967 11.135 27.904v0c0 11.468-4.441 23.463-14.051 33.075v0c-9.677 9.675-21.671 14.116-33.142 14.116v0c-10.87-0.066-20.413-3.775-27.838-11.134v0l-341.012-340.946-65.221 65.087 340.946 340.946c25.582 25.716 59.717 38.375 93.19 38.309v0c35.591 0.066 71.385-13.984 98.492-41.161v0c27.108-27.109 41.161-62.898 41.161-98.427v0c0.066-33.473-12.659-67.606-38.309-93.254v0l-400.929-400.865c-37.78-37.846-87.952-56.604-137.796-56.604v0c-0.066 0.066-0.134 0.066-0.331 0.066v0z" horiz-adv-x="1078" />
<glyph unicode="&#xe614;" d="M928.86 741.291l-137.599-137.533-164.11 164.176 42.087 42.087-41.888 41.823-158.477-158.476c-7.49-7.424-17.235-11.134-26.977-11.134s-19.487 3.71-26.91 11.134c-14.913 14.913-14.913 38.974 0 53.886l185.388 185.453c14.913 14.979 38.973 14.979 53.885 0l68.864-68.798 41.556 41.557c0 0 81.459 82.652 164.176 0 82.651-82.783 0-164.179 0-164.179zM737.375 549.807l-479.87-479.87-243.249-79.073 79.007 243.249v0.199h0.066l479.87 479.738 164.176-164.242z" horiz-adv-x="980" />
<glyph unicode="&#xe615;" d="M175.572 743.901c42.875 0 86.62 40.575 86.62 83.514 0 42.875-41.569 86.62-84.509 86.62-42.875 0-85.565-44.739-85.565-87.676s40.575-82.459 83.451-82.459zM344.586 495.41c0 41.882 0 86.186 0 128.75 0 42.067 2.858 38.028 0 64.374-10.688 32.188-32.188 42.875-53.563 42.875-45.92 0-61.020 0-96.626 0-43.060 0-63.938 0.124-106.938 0.124-21.438 0-35.419 1.428-51.39-12.987-21.626-24.607-19.511-26.782-19.511-95.444 0-33.927 0-93.206 0-131.050 0-33.863-5.716-86.62 28.272-86.62 32.249 0 31.938 23.053 31.938 57.229 0 48.343-0.126 60.894-0.126 89.417 0 31.255-1.803 36.538 4.537 36.538s6.276-0.434 6.276-33.617c0-30.758-0.186-463.796-0.186-488.901 0-21.438 11.434-44.43 43.68-44.43s45.609 18.827 45.609 40.326c0 38.65 0 206.981 0 225.311 0 21.438 0.746 31.814 6.091 31.814 5.468 0 4.66-10.377 4.66-31.814 0-19.446 0-185.667 0-225.311 0-13.485 14.166-42.441 46.354-42.441 21.5 0 41.197 27.59 41.197 41.943 0 85.812 0.496 467.711 0.496 494.681 0 14.604-1.307 33.181 4.225 33.181 5.407 0 5.344-4.971 5.344-26.098 0-24.172 0-48.718 0-82.644 0-56.42 8.761-71.21 30.198-71.21 32.249 0.251 29.454 55.302 29.454 85.998z" horiz-adv-x="362" />
<glyph unicode="&#xe616;" d="M1409.445 62.048h-159.669c-0.132 9.877-0.465 19.749-0.662 29.296-0.465 20.945-0.994 40.762-0.994 52.957v6.693l-2.187 6.298c-19.025 55.211-69.263 72.578-109.563 86.629-10.14 3.514-19.819 6.827-28.765 10.54-19.552 8.285-40.033 17.1-60.645 26.047-30.557 13.056-62.106 26.579-91.533 38.774 1.394 3.049 2.652 5.9 3.842 8.285l14.45 3.514c-3.248 18.094-14.516 19.554-19.222 32.41-1.856 19.355-3.71 38.707-5.501 57.995 0.066-0.859-13.257 2.452-15.045 3.579-12.595 7.887-16.9 32.079-18.823 53.158 3.579 3.049 7.161 6.828 10.538 11.334 12.527 17.566 18.493 42.618 20.878 55.94 4.905 26.977 9.612 66.746-6.23 99.82-2.519 5.369-4.771 9.212-6.429 11.997-0.529 0.73-0.928 1.458-1.326 2.188-0.132 0.399-0.267 1.326-0.399 2.717-0.331 2.782-0.199 8.153 0.201 14.779 10.937 19.884 26.247 33.339 44.34 39.172 32.277 13.057 92.659 37.381 149.065 2.783l13.984-12.991 22.667-3.91c11.268-6.561 18.561-28.236 18.561-28.236 5.966-24.060 6.495-46.33 6.031-70.987-0.266-9.478-5.701-53.423-4.175-66.877 1.261-11.071 3.977-11.997 8.352-21.079 7.625-15.973 5.104-37.911 2.187-54.017-1.589-8.751-5.037-21.278-10.14-28.434-5.701-7.954-16.967-7.954-22.004-17.235-7.29-13.19-3.247-31.881-7.755-46.262-5.105-16.238-18.362-17.364-19.355-38.64 6.497-0.994 12.858-1.856 19.355-2.782 6.495-13.786 18.293-41.426 30.422-49.776 10.14-2.717 20.349-5.501 30.423-8.287 35.527-14.513 74.964-31.947 110.622-46.991 32.278-13.652 71.12-18.491 82.917-52.56 0.066-23.065 2.253-77.549 1.589-107.84zM893.515 513.153c-7.954-11.134-23.861-11.134-30.887-24.125-10.208-18.624-4.441-44.804-10.87-64.889-7.226-22.867-25.783-24.459-27.108-54.217 9.147-1.326 18.094-2.585 27.108-3.91 9.149-19.354 25.65-58.129 42.751-69.858 14.183-3.91 28.433-7.754 42.751-11.73 49.776-20.413 105.118-44.804 155.097-65.882 45.467-19.156 99.886-26.047 116.322-73.637 0-32.411 3.049-108.899 2.187-151.25h-990.628c-0.861 42.421 2.253 118.841 2.253 151.25 16.438 47.655 70.79 54.483 116.256 73.637 50.041 21.076 105.453 45.535 155.295 65.882 14.116 3.977 28.434 7.82 42.55 11.73 17.1 11.729 33.67 50.506 42.751 69.858l20.082 4.836c-4.574 25.519-20.283 27.44-26.91 45.47-2.519 27.174-5.103 54.348-7.686 81.459 0.066-1.26-18.561 3.381-21.010 4.905-26.381 16.571-26.844 83.514-29.426 111.417-1.191 12.858 16.436 23.199 11.598 46.595-28.897 136.736 12.46 229.264 77.878 250.54 45.47 18.362 130.175 52.495 209.047 3.843l19.684-18.094 31.748-5.501c15.841-9.147 26.047-39.702 26.047-39.702 8.352-33.668 9.28-64.955 8.483-99.486-0.331-13.324-7.954-74.895-5.9-93.854 1.59-15.578 5.568-16.835 11.73-29.627 10.736-22.336 7.092-53.158 3.114-75.757-2.254-12.329-7.092-29.891-14.316-39.901zM475.95 597.398c2.518-37.648 6.364-92.726 37.249-121.094-0.662-5.437-1.458-10.671-2.255-15.443-1.655-8.751-5.104-21.277-10.14-28.433-5.632-7.954-17.035-7.954-22.071-17.235-7.157-13.191-3.118-31.947-7.686-46.262-5.105-16.24-18.362-17.364-19.421-38.641 6.56-0.994 12.991-1.856 19.421-2.782 1.26-2.386 2.518-5.369 3.977-8.618-29.426-12.131-60.645-25.519-91.002-38.575-20.613-8.813-41.029-17.63-60.513-25.917-8.948-3.778-18.624-7.026-28.765-10.54-40.432-14.051-90.605-31.417-109.629-86.629l-2.187-6.298v-6.693c0-12.197-0.465-31.947-0.994-52.957-0.266-9.612-0.463-19.42-0.731-29.296h-160.399c-0.529 30.291 1.525 84.772 1.525 107.838 11.797 34.066 50.639 38.907 82.983 52.56 35.59 15.045 75.030 32.479 110.622 46.991 10.007 2.782 20.283 5.567 30.357 8.285 12.197 8.352 23.926 35.989 30.422 49.776l14.384 3.514c-3.181 18.161-14.384 19.554-19.091 32.479-1.857 19.355-3.713 38.707-5.5 57.995 0-0.859-13.324 2.452-15.047 3.58-18.756 11.795-19.091 59.517-20.945 79.405-0.795 9.081 11.798 16.571 8.284 33.139-20.548 97.499 8.881 163.381 55.542 178.561 32.346 13.123 92.725 37.446 148.996 2.848l14.053-12.991 22.006-3.778c1.589-15.841 4.175-32.346 7.822-49.645-0.529-1.191-1.589-3.114-2.452-4.64-4.175-7.754-11.401-20.742-9.744-37.846 0.268-3.579 0.596-7.887 0.928-12.659z" horiz-adv-x="1430" />
<glyph unicode="&#xe617;" d="M925.005-6.351c0 82.387 0 164.839 0 247.227-34.399 30.491-68.798 61.045-103.066 91.466-21.541-1.987-43.149-4.11-64.757-6.166-20.481-1.196-40.894-2.386-61.31-3.646-11.069-0.268-22.070-0.463-33.142-0.661-23.332-0.268-46.86-0.465-70.258-0.73-69.396 0-137.333 0.994-201.159 6.894 0-0.267 0-0.463 0-0.73-4.971-20.548-9.942-41.161-14.913-61.774-1.589-6.166-1.589-14.913-5.037-19.617-5.236-7.026-33.339-17.168-45.136-9.013-27.904 37.119-55.876 74.301-83.911 111.417-27.107-0.132-73.241 5.568-53.024 38.509 2.851 4.574 7.358 6.627 11.729 9.809 0 0.066 0 0.199 0 0.399-45.868 42.817-91.731 85.635-137.663 128.519-10.207 9.542-20.548 19.153-30.82 28.631-3.445 3.514-10.272 7.157-6.229 13.92 9.477 15.244 44.011 17.235 62.898 9.411 57.927-27.508 115.923-54.947 173.921-82.452-3.049 33.737-6.099 67.539-9.083 101.277-0.861 4.572-2.983 30.157-1.857 31.614 6.365 1.060 12.595 2.122 18.891 3.248 7.093 1.525 16.637 5.371 25.385 3.646 15.775-2.983 28.301-13.191 39.303-21.409 14.516-10.937 31.947-31.152 43.481-45.403 18.891-20.151 37.846-40.233 56.604-60.314 8.816-9.545 17.764-19.091 26.512-28.701 68.666 12.991 137.333 25.917 205.932 38.907-2.452 2.518-4.772 4.837-7.226 7.29-13.257 13.588-26.381 27.044-39.634 40.629-16.571 17.035-33.074 34.133-49.776 51.168-24.655 15.443-49.38 30.754-74.035 46.132-125.471 79.137-251.003 158.343-376.473 237.483 0 0.066 0 0.198 0 0.399 3.646 2.782 7.293 5.5 10.87 8.285 14.582 11.069 26.708 24.125 47.524 28.697 7.423 0.463 14.848 0.994 22.137 1.458 19.884-7.82 39.834-15.772 59.586-23.594 58.195-22.667 116.388-45.27 174.581-67.937 220.183-85.568 440.367-171.070 660.55-256.704 36.919 7.026 73.769 13.984 110.689 21.077 57.003 10.671 114.069 21.277 171.003 31.947 11.071 4.441 22.004 8.948 33.142 13.455 29.361 11.534 79.602 22.467 121.157 13.787 24.722-5.238 40.562-16.766 61.774-25.054 36.322-14.182 89.743-14.779 101.276-53.356 4.971-16.436-1.923-32.144-8.352-41.691-17.764-26.579-49.578-43.943-80.201-57.398-86.364-38.045-183.069-59.983-286.133-82.783-31.283-5.435-62.371-10.87-93.655-16.305-13.787-1.789-27.638-3.646-41.358-5.435-42.421-92.528-84.707-184.989-127.057-277.45-10.007-21.671-19.884-43.28-29.761-64.954-6.295-14.183-11.797-29.562-23.265-38.509-14.848-11.534-54.682-14.913-80.663-14.913z" horiz-adv-x="1722" />
<glyph unicode="&#xe618;" d="M926.775 939.138c-30.29-11.666-63.431-25.188-89.014-45.599l-178.957-151.517-549.266 116.122-66.941-66.015 422.937-241.129-212.099-256.506-167.755 51.435-71.447-66.745 159.47-81.125-14.316-16.9c-7.621-7.686-7.094-31.947 0.066-40.894 8.816-7.226 33.142-7.686 40.895 0l17.566 14.316 81.459-160.466 66.745 71.385-51.366 167.291 257.17 207.657 235.626-413.191 65.882 66.941-113.607 537.731 154.499 184.591c20.151 25.783 33.935 58.858 45.668 88.948 11.865 30.159-3.049 45.268-33.206 33.671zM160.242 139.467c-0.201 0.399-0.53 0.662-0.795 0.796-0.201 0.268-0.399 0.463-0.731 0.73l1.525-1.525z" horiz-adv-x="978" />
<glyph unicode="&#xe619;" d="M871.219 427.556v-345.921c0-30.449-24.73-55.178-55.239-55.178s-55.178 24.669-55.178 55.178v345.921c-32.934 19.076-55.178 54.681-55.178 95.568 0 40.825 22.183 76.429 55.178 95.569v235.503c0 30.511 24.669 55.178 55.178 55.178s55.239-24.668 55.239-55.178v-235.503c32.996-19.077 55.178-54.683 55.178-95.569s-22.121-76.492-55.178-95.568zM540.146 151.602v-69.967c0-30.449-24.668-55.178-55.241-55.178-30.449 0-55.178 24.669-55.178 55.178v69.967c-32.932 19.137-55.178 54.745-55.178 95.63 0 40.763 22.181 76.368 55.178 95.506v511.396c0 30.511 24.669 55.178 55.178 55.178s55.241-24.669 55.241-55.178v-511.396c32.934-19.137 55.178-54.745 55.178-95.506 0-40.885-22.243-76.492-55.178-95.63zM209.077 593.093v-511.457c0-30.449-24.668-55.178-55.179-55.178s-55.241 24.669-55.241 55.178v511.457c-32.996 19.137-55.116 54.683-55.116 95.568 0 40.822 22.122 76.492 55.18 95.568v69.967c0 30.511 24.73 55.178 55.241 55.178s55.179-24.668 55.179-55.178v-69.967c32.932-19.077 55.239-54.683 55.239-95.568-0.062-40.885-22.37-76.429-55.303-95.568z" horiz-adv-x="970" />
<glyph unicode="&#xe61a;" d="M31.961 798.83c280.305 0 324.172 110.482 324.172 110.482s42.814-110.482 324.172-110.482v-452.985c0-178.957-324.172-321.005-324.172-321.005s-324.172 142.11-324.172 321.005v452.985z" horiz-adv-x="712" />
<glyph unicode="&#xe61b;" d="M514.506 909.374l117.005-331.194 351.142-9.011-278.75-213.692 99.92-336.602-289.315 199.027-289.376-199.027 99.98 336.601-278.813 213.692 351.14 9.011 117.068 331.194z" horiz-adv-x="1030" />
<glyph unicode="&#xe61c;" d="M759.446 364.114c94.202-3.539 175.602 27.962 175.602 27.962s-68.663 61.081-159.383 87.986c87.615 34.736 149.567 96.375 149.567 96.375s-87.552 28.149-181.379 16.281c66.239 67.047 97.993 148.446 97.993 148.446s-98.239-10.191-181.379-63.567c35.604 91.963 29.516 185.543 29.516 185.543s-89.914-53.936-141.984-141.987c-6.587 102.092-56.299 188.215-56.299 188.215s-49.836-77.362-62.635-171.005c-47.474 81.278-117.999 132.977-117.999 132.977s-14.541-90.845 11.557-181.692c-76.368 55.239-161.62 74.193-161.62 74.193s23.241-88.982 83.825-161.684c-92.15 19.824-177.964 2.858-177.964 2.858s57.229-72.078 141.797-114.209c-92.275-19.015-163.919-69.098-163.919-69.098s81.401-42.875 175.788-47.474c-76.803-54.619-122.286-129.184-122.286-129.184s91.839-6.587 180.016 27.216c-48.405-80.778-59.9-167.462-59.9-167.462s86.683 30.944 153.853 97.492c-11.681-93.456 12.614-177.465 12.614-177.465s66.735 63.381 101.533 151.306c26.844-90.349 83.079-157.331 83.079-157.331s35.604 84.756 31.937 179.331c60.957-71.769 139.313-110.605 139.313-110.605s-1.43 91.963-42.814 176.969c84.818-41.135 172.121-45.052 172.121-45.052s-38.4 83.575-110.543 144.658z" horiz-adv-x="980" />
<glyph unicode="&#xe61d;" d="M291.174 635.408c55.428 55.552 82.955 128.999 83.015 205.925 0 18.021-1.552 36.165-4.66 54.122-160.192-44.863-283.969-176.781-316.842-341.696 10.874-1.117 21.5-1.615 32.249-1.615 76.989 0.124 150.498 27.652 206.235 83.264zM659.029 267.302c-55.615-55.615-83.015-128.997-83.015-205.925-0.251-10.935 0.374-21.5 1.43-32.496 164.914 33.057 296.895 156.773 341.695 317.028-17.957 3.045-36.225 4.66-54.245 4.66-76.738-0.187-150.249-27.587-205.862-83.264zM489.953 912.108c-18.58 0-36.66-1.307-54.557-3.542 3.914-22.37 5.966-44.801 5.966-67.233 0.062-92.959-33.863-184.549-102.901-253.522-68.784-68.847-160.315-102.837-253.086-102.837h-0.434c-13.422 0-26.967 0.87-40.389 2.174-0.31-6.897-0.559-13.92-0.559-21.003 0-246.313 199.649-445.902 445.963-445.902 7.022 0 13.92 0.251 20.941 0.56-1.305 13.421-2.113 27.030-2.113 40.513-0.062 93.019 33.803 184.549 102.777 253.46v0c68.973 68.973 160.628 102.962 253.399 102.837 22.494 0 45.113-2.113 67.418-5.966 2.114 17.895 3.418 36.102 3.418 54.494 0 246.313-199.588 445.963-445.838 445.963z" horiz-adv-x="980" />
<glyph unicode="&#xe61e;" d="M483.356 24.656l-432.541 439.998 110.482 89.043 250.352-196.107c102.279 121.729 329.826 364.252 643.312 556.444l26.534-61.143c-287.824-264.831-523.636-637.535-598.139-828.235z" horiz-adv-x="1132" />
<glyph unicode="&#xe61f;" d="M1071.675 701.723c-29.231-714.038-668.771-707.611-691.438-707.611s-286.532 6.497-362.75 108.434c118.176-22.602 301.178 37.317 353.075 97.233-118.176-9.677-220.251 108.569-218.659 161.923 19.421-6.561 63.165 0 93.919 9.742-163.581 45.27-179.685 173.19-181.21 237.946 17.962-9.675 54.947-29.030 97.099-22.599-100.482 58.194-126.331 223.431-61.574 314.102 226.612-255.908 485.769-252.593 485.769-252.593-4.836 221.843 129.447 294.748 244.509 294.748 114.864 0 161.791-64.823 176.437-79.405 17.763 3.313 95.51 34.001 148.933 61.574-3.247-14.582-51.83-103.597-95.51-129.514 11.399 0 93.92 21.077 123.014 30.754-8.020-19.421-48.452-81.062-111.616-124.74z" horiz-adv-x="1202" />
<glyph unicode="&#xe620;" d="M489.287 943.049c262.338 0 475.030-212.628 475.030-475.030s-212.694-475.030-475.030-475.030-475.030 212.759-475.030 475.097 212.694 474.966 475.030 474.966zM489.287 798.889c-182.469 0-330.804-148.4-330.804-330.804 0-182.535 148.337-330.87 330.804-330.87s330.805 148.337 330.805 330.87c0 182.403-148.337 330.804-330.805 330.804v0zM575.252 320.409l-126.861 131.104v263.598c0 22.599 18.227 40.96 40.894 40.96v0c22.667 0 40.894-18.293 40.894-40.96v0-230.524l103.862-107.173c15.639-16.305 15.245-42.22-0.994-57.861v0c-7.954-7.621-18.227-11.6-28.502-11.6v0c-10.606 0.066-21.277 4.176-29.296 12.46v0z" horiz-adv-x="980" />
<glyph unicode="&#xe621;" d="M1081.982 440.588c-111.627-83.735-206.897-83.735-318.522 0-72.867 54.641-134.987 54.641-207.766 0-110.666-82.926-200.858-82.926-311.434 0-73.646 55.242-123.369 55.242-197.044 0l-30.443 40.531c89.563 67.133 164.765 69.836 257.842 0 87.76-65.782 152.49-73.59 250.665 0 93.071 69.836 179.604 66.743 268.557 0 91.241-68.453 162.908-71.123 257.785 0 93.165 69.836 153.991 69.836 247.062 0l-30.415-40.501c-74.848 56.146-111.385 56.146-186.299-0.028zM1081.982 578.034c-111.627-83.767-206.897-83.767-318.522 0-72.867 54.669-134.987 54.669-207.766 0-110.666-82.897-200.858-82.897-311.434 0-73.646 55.242-123.369 55.242-197.044 0l-30.443 40.501c89.563 67.193 164.765 69.834 257.842 0 87.76-65.782 152.49-73.59 250.665 0 93.071 69.834 179.604 66.743 268.557 0 91.241-68.484 162.908-71.156 257.785 0 93.165 69.834 153.991 69.834 247.062 0l-30.415-40.531c-74.848 56.234-111.385 56.234-186.299 0.028zM274.618 343.667c87.76-65.812 152.489-73.59 250.665 0 93.071 69.802 179.604 66.682 268.557 0 91.241-68.484 162.908-71.155 257.785 0 93.165 69.802 153.991 69.802 247.062 0l-30.415-40.531c-74.849 56.146-111.419 56.146-186.326 0-111.627-83.735-206.895-83.735-318.522 0-72.867 54.614-134.987 54.614-207.766 0-110.666-82.983-200.858-82.983-311.434 0-73.647 55.242-123.369 55.242-197.044 0l-30.415 40.531c89.563 67.106 164.765 69.836 257.842 0z" horiz-adv-x="1316" />
<glyph unicode="&#xe622;" d="M626.775 250.467c-22.898 3.645-23.419 66.606-23.419 66.606s67.281 66.608 81.949 156.176c39.446 0 63.812 95.222 24.358 128.723 1.646 35.266 50.704 276.85-197.662 276.85s-199.307-241.58-197.664-276.85c-39.453-33.503-15.088-128.723 24.358-128.723 14.662-89.568 81.949-156.176 81.949-156.176s-0.524-62.964-23.419-66.606c-73.758-11.735-349.184-133.219-349.184-266.43h927.924c0 133.213-275.428 254.693-349.187 266.43z" />
<glyph unicode="&#xe623;" d="M729.483 354.794c-62.138-62.138-62.138-124.276-124.276-124.276s-124.276 62.138-186.414 124.276-124.276 124.276-124.276 186.414 62.138 62.138 124.276 124.276-124.276 248.551-186.414 248.551-186.414-186.414-186.414-186.414c0-124.276 127.674-376.225 248.551-497.103s372.827-248.551 497.103-248.551c0 0 186.414 124.276 186.414 186.414s-186.414 248.551-248.551 186.414z" />
<glyph unicode="&#xe624;" d="M978.034 552.629l-322.018 46.793-144.015 291.801-144.012-291.801-322.021-46.793 233.017-227.136-55.007-320.719 288.023 151.423 288.023-151.423-55.009 320.719 233.018 227.136zM512 228.182l-203.399-106.933 38.845 226.492-164.555 160.4 227.41 33.044 101.701 206.070 101.705-206.070 227.407-33.044-164.557-160.4 38.847-226.492-203.399 106.933z" />
<glyph unicode="&#xe625;" d="M992 555.765l-331.669 48.195-148.331 300.545-148.327-300.545-331.673-48.195 240.001-233.94-56.655-330.33 296.655 155.962 296.655-155.962-56.659 330.33 240.001 233.94zM512 221.595l-0.884-0.465 0.884 535.095 104.752-212.246 234.221-34.035-169.489-165.209 40.012-233.279-209.495 110.137z" />
<glyph unicode="&#xe626;" d="M978.034 552.629l-322.018 46.793-144.015 291.801-144.012-291.801-322.021-46.793 233.017-227.136-55.007-320.719 288.023 151.423 288.023-151.423-55.009 320.719 233.018 227.136z" />
<glyph unicode="&#xe627;" d="M406.901 169.908v37.769c0 0 0.368 36.423 74.131 69.361 31.779 14.177 68.507 19.983 128.519 30.676 7.639 11.918 16.743 42.35 20.897 59.403-3.666-0.734-23.406-8.981-28.231-8.981-3.728 0-7.884 0.244-12.405 0.795-2.689 0.307-15.278 5.62-26.218 5.62-1.773 0-3.119-0.122-3.79-0.49-4.095-2.078-8.431-3.18-12.649-3.728l0.49 1.344 10.083 36.055c0 0-17.845 1.099-27.806 11.246-5.868 5.929-10.143 7.15-12.711 7.15-1.773 0-2.689-0.611-2.689-0.611-6.173 72.174-11.062 214.077 62.334 268.529 25.543 19.005 47.361 25.667 65.389 25.667 19.13 0 33.978-7.577 44.548-15.889 10.634 8.373 25.487 15.889 44.548 15.889 17.966 0 39.783-6.722 65.392-25.667 74.373-55.246 64.29-200.205 55.794-271.399 0 0-8.189-4.462-15.46-4.462-1.895 0-3.728 0.365-5.377 1.099-0.918 0.43-1.773 0.611-2.75 0.611-7.577 0-16.622-11.427-16.622-11.427l12.284-30.801c0.307-2.137 0.916-4.215 1.588-6.173-4.401 0-7.639 0.49-8.19 1.895-0.43 1.041-2.81 1.465-6.354 1.465-12.896 0-41.008-5.563-43.391-5.806-4.585-0.55-8.738-0.796-12.405-0.796-1.711 0-11.184 7.823-12.711 7.942 6.416-26.948 15.826-52.313 19.188-57.811 61.724-10.45 99.125-16.745 131.394-31.045 74.006-33.061 74.372-69.667 74.372-69.667v-37.706l-561.194-0.059zM468.316 305.577c-87.695-39.111-92.586-88.185-92.705-97.598v-36.605h-336.425v61.172c0 0 0.365 36.484 74.131 69.361 36.422 16.255 79.262 47.484 156.387 57.383-23.712 17.966-34.099 55.062-54.327 106.581-0.306 0.797-0.609 1.71-0.916 2.506-4.644-0.854-9.413-0.854-12.834 1.284-9.349 5.866-14.971 37.769-15.154 53.35-0.306 23.345 11.364 21.024 11.364 21.024s0.368 0.122 0.978 0.244c-0.061 1.833-0.123 3.666-0.123 5.499 0 21.878-4.158 57.017 1.284 76.329 8.373 29.885 18.454 62.825 40.762 62.825 20.657 0 6.66 25.726 31.902 34.406 26.094 8.924 69.055-6.722 77.795-6.722 12.528 0 44.122-9.778 65.881-32.817 15.341-16.255 13.629-27.502 22.061-57.446 5.561-19.802 1.284-55.428 1.284-76.511 0-1.895-0.059-3.728-0.122-5.561 0.368-0.062 0.55-0.186 0.55-0.186s11.612 2.325 11.427-21.023c-0.307-15.645-5.927-47.545-15.278-53.412-3.361-2.080-7.943-2.138-12.469-1.344-0.306-0.734-0.55-1.526-0.854-2.323-20.044-51.029-31.045-88.368-54.574-106.458 58.789-7.333 97.778-27.012 129.071-43.267-10.144-3.053-19.741-6.54-29.089-10.693z" />
<glyph unicode="&#xe628;" d="M807.354 473.846c-59.354-132.684-179.785-284.451-284.515-522.886-99.052 233.393-218.013 383.757-279.728 514.462-26.484 46.717-41.803 100.645-41.803 158.147 0 177.616 143.981 321.53 321.595 321.53s321.595-143.917 321.595-321.53c0-54.121-13.531-104.987-37.142-149.726zM517.162 763.212c-81.053 0-146.725-65.671-146.725-146.66s65.671-146.725 146.725-146.725 146.724 65.671 146.724 146.725-65.735 146.66-146.724 146.66z" />
<glyph unicode="&#xe629;" d="M703.719 239.383h-96.732v-96.659h96.732v96.659zM567.399 498.178h-96.659v-96.659h96.659v96.659zM703.719 368.816h-96.732v-96.659h96.732v96.659zM839.899 498.178h-96.732v-96.659h96.659v96.659zM567.399 368.816h-96.659v-96.659h96.659v96.659zM703.719 498.178h-96.732v-96.659h96.732v96.659zM839.899 368.816h-96.732v-96.659h96.659v96.659zM294.971 239.383h-96.659v-96.659h96.659v96.659zM294.971 368.816h-96.659v-96.659h96.659v96.659zM815.028 839.127v-42.417c16.676-14.721 27.266-36.256 27.266-60.33 0-44.449-36.038-80.489-80.56-80.489-44.449 0-80.561 36.039-80.561 80.489 0 24.074 10.585 45.536 27.265 60.33v42.417h-376.337v-42.417c16.676-14.721 27.265-36.256 27.265-60.33 0-44.449-36.039-80.489-80.561-80.489s-80.561 36.039-80.561 80.489c0 24.074 10.588 45.536 27.265 60.33v42.417h-179.539v-857.088h941.276v857.088h-172.217zM901.244 67.893h-769.278v535.572h769.278v-535.572zM431.222 498.178h-96.732v-96.659h96.732v96.659zM431.222 239.383h-96.732v-96.659h96.732v96.659zM567.399 239.383h-96.659v-96.659h96.659v96.659zM431.222 368.816h-96.732v-96.659h96.732v96.659zM278.73 689.463c22.117 0 40.1 17.985 40.1 40.1v144.371c0 22.188-17.91 40.1-40.1 40.1s-40.1-17.913-40.1-40.1v-144.446c0-22.117 17.985-40.027 40.1-40.027zM761.732 689.463c22.116 0 40.099 17.985 40.099 40.1v144.371c0 22.188-17.983 40.1-40.099 40.1-22.188 0-40.099-17.913-40.099-40.1v-144.446c0-22.117 17.91-40.027 40.099-40.027z" />
<glyph unicode="&#xe62a;" d="M952.39 131.413l-154.49 154.461c40.717 63.539 65.023 138.62 65.023 219.683 0 225.607-182.87 408.476-408.479 408.476-225.582 0-408.476-182.868-408.476-408.478s182.897-408.478 408.476-408.478c81.062 0 156.142 24.306 219.654 65.023l154.489-154.49c34.191-34.189 89.611-34.189 123.805 0 34.189 34.194 34.189 89.613 0 123.805zM454.444 213.785c-161.13 0-291.77 130.613-291.77 291.77 0 161.13 130.64 291.77 291.77 291.77 161.159 0 291.77-130.64 291.77-291.77 0-161.157-130.611-291.77-291.77-291.77zM279.381 447.202h350.125v116.706h-350.125v-116.706z" />
<glyph unicode="&#xe62b;" d="M88.676 24.676c-34.189 34.192-34.189 89.614 0 123.805l154.49 154.489c-40.717 63.513-65.023 138.592-65.023 219.654 0 225.582 182.87 408.477 408.478 408.477s408.478-182.897 408.478-408.477c0-225.61-182.869-408.478-408.478-408.478-81.063 0-156.141 24.306-219.681 65.023l-154.461-154.49c-34.191-34.191-89.61-34.191-123.803-0.001zM878.391 522.623c0 161.13-130.64 291.77-291.77 291.77-161.157 0-291.77-130.64-291.77-291.77 0-161.159 130.613-291.77 291.77-291.77 161.13 0 291.77 130.611 291.77 291.77zM411.561 464.269v116.706h116.706v116.706h116.706v-116.706h116.708v-116.706h-116.708v-116.708h-116.706v116.708h-116.706z" />
<glyph unicode="&#xe62c;" d="M952.39 7.611c-34.192-34.191-89.611-34.191-123.805 0l-154.489 154.487c-63.511-40.745-138.591-65.021-219.652-65.021-225.582 0-408.478 182.87-408.478 408.478s182.898 408.477 408.478 408.477c225.609 0 408.478-182.867 408.478-408.477 0-81.035-24.306-156.141-65.023-219.684l154.49-154.487c34.189-34.191 34.189-89.582 0-123.773zM454.445 797.327c-161.13 0-291.77-130.611-291.77-291.767s130.64-291.77 291.77-291.77c161.157 0 291.77 130.613 291.77 291.77s-130.613 291.767-291.77 291.767z" />
<glyph unicode="&#xe62d;" d="M143.169 770.539c23.513-22.95 253.237-264.151 253.237-264.151 12.601-12.263 18.844-28.295 18.844-44.326s-6.243-32.062-18.844-44.326c0 0-229.724-241.201-253.237-264.094-23.512-22.95-65.757-24.524-90.898 0-25.086 24.469-27.057 58.612 0 88.594l210.826 219.826-210.769 219.826c-27.057 30.037-25.086 64.18 0 88.649s67.388 22.95 90.844 0z" horiz-adv-x="448" />
<glyph unicode="&#xe62e;" d="M886.307 366.968c-27.784 28.536-320.512 307.336-320.512 307.336-14.883 15.224-34.339 22.869-53.795 22.869-19.525 0-38.981-7.645-53.795-22.869 0 0-292.728-278.803-320.581-307.336-27.784-28.536-29.696-79.872 0-110.32 29.765-30.379 71.203-32.835 107.587 0l266.787 255.795 266.717-255.795c36.456-32.835 77.96-30.379 107.589 0 29.763 30.515 27.923 81.853 0 110.32z" />
<glyph unicode="&#xe62f;" d="M886.307 563.165c-27.784-28.536-320.512-307.405-320.512-307.405-14.883-15.224-34.339-22.8-53.795-22.8-19.525 0-38.981 7.576-53.795 22.8 0 0-292.728 278.869-320.581 307.405-27.784 28.536-29.696 79.803 0 110.32 29.765 30.445 71.203 32.835 107.587 0l266.787-255.864 266.717 255.795c36.456 32.837 77.96 30.448 107.589 0 29.763-30.445 27.923-81.784 0-110.251z" />
<glyph unicode="&#xe630;" d="M336.831 763.507c-23.513-22.95-253.237-264.151-253.237-264.151-12.544-12.263-18.787-28.295-18.787-44.326s6.243-32.062 18.787-44.326c0 0 229.727-241.201 253.237-264.094 23.513-22.95 65.813-24.524 90.901 0 25.031 24.469 27.001 58.612-0.057 88.594l-210.769 219.826 210.769 219.826c27.055 30.039 25.088 64.18 0.057 88.651-25.145 24.469-67.445 22.95-90.901 0z" horiz-adv-x="512" />
<glyph unicode="&#xe631;" d="M842 807.999l-449.999-449.999-210 210-150-150 359.999-359.999 599.999 599.999z" />
<glyph unicode="&#xe632;" d="M48.038 779.402h927.925v-198.842h-927.925zM48.038 514.281h927.925v-198.842h-927.925zM48.038 249.158h927.925v-198.842h-927.925z" />
<glyph unicode="&#xe633;" d="M841.536 777.536c-181.998 182-477.074 182-659.070 0s-182-477.074 0-659.070c181.998-181.998 477.074-181.998 659.070 0 181.998 181.998 181.998 477.074 0 659.070zM510.805 342.348l-160.093-160.093-106.843 106.845 160.091 160.093-160.093 160.093 106.845 106.843 160.093-160.091 160.093 160.093 106.845-106.845-160.093-160.093 160.093-160.093-106.845-106.845-160.093 160.093z" />
<glyph unicode="&#xe634;" d="M512 272.782l-262.542-262.542-175.22 175.218 262.54 262.542-262.54 262.542 175.22 175.218 262.542-262.54 262.542 262.54 175.218-175.218-262.542-262.542 262.636-262.542-175.313-175.218-262.542 262.542z" />
<glyph unicode="&#xe635;" d="M1047.125 494.336c-12.608 104.832-64.512 202.368-145.856 274.56-78.016 69.12-178.496 110.656-284.48 117.76v10.688l-0.32 1.28-0.768 4.672c-3.328 16.512-14.976 27.52-29.568 28.032h-1.216c-14.72-0.576-26.24-11.584-29.632-28.032v-0.448l-0.064-0.384-0.704-5.12 0.128 0.896-0.384-2.368v-8.896c-226.56-13.248-412.544-181.952-435.712-398.016l-1.536-14.528 14.4-2.432 7.616-1.344 14.464-2.624 3.456 14.272c10.176 42.432 47.616 72 91.136 72 44.352 0 82.88-31.808 91.648-75.52l0.576-2.88 2.432-12.864h34.112l2.56 12.48 0.704 3.2c8.704 43.776 47.168 75.52 91.584 75.52 40.832 0 76.224-26.112 88.768-65.216l0.064-374.336 0.448-59.648c-0.064-25.6-19.584-46.4-43.392-46.464-23.808 0.064-43.328 20.8-43.392 46.464 0 12.096-9.92 22.080-22.080 22.080-12.032 0-21.952-9.792-22.080-22.080 0.128-49.856 39.36-90.496 87.552-90.56h0.064c48.192 0.064 87.424 40.704 87.488 90.368l0.64 59.968v371.84c0.96 3.264 1.92 6.080 2.816 8.576 14.336 35.968 48.448 59.072 86.784 59.072 44.224 0 82.88-31.808 91.648-75.456l0.512-3.136 2.368-12.672h34.24l2.624 12.608 0.512 3.136c8.768 43.776 47.36 75.52 91.776 75.52 41.472 0 78.528-27.84 90.112-67.712l4.032-13.824 14.016 2.88 7.616 1.536 14.144 2.88-1.856 14.272z" horiz-adv-x="1166" />
<glyph unicode="&#xe636;" d="M75.605 477.312v-366.144c0-77.824 63.040-140.864 140.864-140.864h535.296v619.648h-535.296c-77.824 0-140.864-34.88-140.864-112.64zM300.63 277.376c0 8.576 0.192 16 0.576 22.464h-36.288l8.832 43.008h33.024c7.744 36.864 23.168 67.648 46.336 92.352 34.944 37.376 80.896 56.064 137.856 56.064 31.040 0 58.048-5.696 80.96-16.96l-16.384-76.8c-15.744 15.68-38.72 23.552-68.8 23.552-30.144 0-54.592-10.816-73.28-32.448-10.496-12.224-17.984-27.392-22.4-45.824h152.512l-8.832-42.944h-149.248c-0.192-4.288-0.192-9.728-0.192-16.32 0-6.528 0.192-13.184 0.512-20.224h141.184l-8.896-43.008h-126.464c4.608-19.776 11.776-35.264 21.312-46.592 18.496-21.824 42.56-32.768 72.128-32.768 35.456 0 63.808 10.944 84.864 32.768v-84.864c-24-12.032-52.032-18.048-84.032-18.048-54.016 0-98.368 18.496-133.184 55.488-23.68 25.152-39.232 56.448-46.848 94.016h-40.96l8.832 43.008h27.136c-0.192 4.416-0.256 9.152-0.256 14.080zM1061.973 867.008c0 0-151.488 210.56-299.392-150.72-148.096 361.28-299.392 150.72-299.392 150.72-112.96-190.336 139.136-232.704 266.176-242.176-0.384-0.896-0.64-1.728-0.896-2.624 0 0 12.992-0.192 34.112 0.704 21.12-0.896 34.112-0.704 34.112-0.704-0.512 0.896-0.64 1.728-0.896 2.624 126.912 9.472 379.072 51.84 266.176 242.176zM738.709 653.12c-14.144 2.816-195.456 40.896-161.664 128.64 0 0 40.256 99.712 162.048-127.68-0.128-0.384-0.256-0.704-0.384-0.96zM785.366 652.928c122.368 228.928 162.752 128.832 162.752 128.832 35.008-91.264-162.752-128.832-162.752-128.832zM920.726 589.952h-112.768v-619.712h112.768c77.632 0 140.736 63.040 140.736 140.864v366.208c0 77.76-63.104 112.64-140.736 112.64z" horiz-adv-x="1166" />
<glyph unicode="&#xe637;" d="M870.997-32v96h-192v96l-96 96h-96v4.8c-15.872-2.304-31.68-4.8-48-4.8-185.664 0-336 150.464-336 336s150.336 336 336 336c185.472 0 336-150.464 336-336 0-51.84-12.672-100.288-33.6-144.064h33.6l287.936-288v-192h-191.936zM390.997 736c-52.992 0-96-42.944-96-96.064 0-52.928 42.944-95.936 96-95.936s96 42.944 96 95.936c0 53.056-43.008 96.064-96 96.064z" horiz-adv-x="1166" />
<glyph unicode="&#xe638;" d="M1059.734 29.312h-955.136c-37.696 0-68.16 32.512-68.16 72.704v522.944l142.336-51.968v244.864c0 26.944 27.776 48.832 62.080 48.832h682.624c34.24 0 62.016-21.888 62.016-48.832v-243.648l142.528 52.544v-524.736c-0.128-40.192-30.656-72.704-68.288-72.704zM830.357 721.792h-496.448c-17.216 0-31.104-11.008-31.104-24.448 0-13.504 13.952-24.448 31.104-24.448h496.384c17.216 0 30.976 10.944 30.976 24.448 0.064 13.44-13.824 24.448-30.912 24.448zM830.357 575.296h-496.448c-17.216 0-31.104-10.944-31.104-24.448 0-13.44 13.952-24.384 31.104-24.384h496.384c17.216 0 30.976 10.944 30.976 24.384 0.064 13.504-13.824 24.448-30.912 24.448zM1032.086 487.488l-417.6-116.224c1.344 0.896 2.048 1.28 2.688 1.6-3.968-2.112-20.032-9.984-36.992-9.92 0.64 0-17.088-1.536-33.728 8.576l-417.28 114.88v-326.080c0-25.152 25.28-45.312 56.448-45.312h790.080c31.104 0 56.384 20.16 56.384 45.312v327.168z" horiz-adv-x="1166" />
<glyph unicode="&#xe639;" d="M190.628 226.623c2.119 68.49 58.415 123.459 127.436 123.459 69.198 0 125.579-55.233 127.523-123.812 48.253 0 421.365 0 673.143 0 2.652 67.606 58.415 121.777 126.726 121.777s123.988-54.173 126.817-121.691c45.159 0.177 115.15 0.706 123.812 0.706 107.905 0 138.482 131.501 57.356 254.516-28.722 43.393-47.9 73.881-112.942 145.994-90.229 100.039-170.386 150.766-238.167 150.766-52.229 0-949.577 1.767-1029.377 1.678-15.643 0-35.172 0-50.373-12.637-18.823-15.553-21.21-42.155-21.21-63.54v-244.354c-13.344-51.611-46.397-224.293 89.258-232.865zM1305.019 440.577h-45.69c-5.921 0-10.782 4.772-10.782 10.693s4.861 10.782 10.782 10.782h45.69c5.921 0 10.782-4.861 10.782-10.782 0-6.009-4.772-10.693-10.782-10.693zM1233.967 725.759c81.658-24.037 177.543-131.057 237.549-210.418-0.972-1.767-1.59-3.005-1.59-3.005h-235.958v213.423zM1015.596 730.973c81.922-0.089 147.143-0.177 179.575-0.267v-218.459h-179.575v218.725zM801.643 731.413c61.243-0.089 121.072-0.267 175.157-0.353v-218.814h-175.157v219.167zM589.723 731.769c57.179-0.089 115.769-0.267 173.124-0.353v-219.167h-173.124v219.521zM377.891 732.21c52.848-0.089 111.705-0.177 173.036-0.353v-219.611h-173.036v219.963zM148.738 703.755c0 22.535 3.977 26.954 3.977 26.954 2.563 1.678 14.934 1.678 20.15 1.678 30.401 0 90.229 0 166.231-0.089v-220.051h-190.27v191.506zM1245.367 326.398c-57.974 0-105.165-47.19-105.165-105.165 0-58.061 47.19-105.076 105.165-105.076s105.165 47.015 105.165 105.076c0.089 57.974-47.103 105.165-105.165 105.165zM1245.367 165.998c-30.489 0-55.233 24.745-55.233 55.233s24.745 55.233 55.233 55.233c30.578 0 55.233-24.745 55.233-55.233s-24.656-55.233-55.233-55.233zM318.061 327.811c-58.061 0-105.253-47.103-105.253-105.076s47.19-105.076 105.253-105.076c58.061 0 105.253 47.103 105.253 105.076s-47.19 105.076-105.253 105.076zM318.061 167.412c-30.401 0-55.233 24.745-55.233 55.233 0 30.401 24.833 55.233 55.233 55.233 30.489 0 55.323-24.833 55.323-55.233 0-30.489-24.745-55.233-55.323-55.233z" horiz-adv-x="1646" />
<glyph unicode="&#xe63a;" d="M894.177 222.792c-63.488 0-62.505-61.542-62.505-61.542v-92.129l-623.852-1.311-0.338 92.467c0.983 62.505-62.515 63.816-62.515 63.816h-93.768v342.538h92.795c65.454 0 63.498 60.57 63.498 60.57v95.724h156.293v62.525c0 0 1.956 61.542 61.542 61.542h189.501c0 0 60.549 3.901 60.549-60.57v-63.498h155.32l1.946-93.778c0 0 0-62.505 62.515-62.505h93.768v-343.849h-94.751zM582.574 786.422h-126.003c0 0-31.263-1.956-31.263-30.29v-33.219h187.556l0.983 29.307c-0.010 0.010 1.946 34.202-31.273 34.202zM862.761 659.374l0.164 62.577h63.488c0 0 60.57 0 60.57-60.57v-60.877l-60.703-1.812c-61.542 0-63.519 60.682-63.519 60.682zM910.787 691.671c-8.632 0-15.626-7.004-15.626-15.616 0-8.643 7.004-15.636 15.626-15.636s15.616 6.994 15.616 15.636c0.010 8.612-6.984 15.616-15.616 15.616zM112.865 598.692l-60.703 0.492v62.198c0 60.57 60.57 60.57 60.57 60.57h63.498l0.174-62.577c0 0-1.987-60.682-63.539-60.682zM128.369 691.671c-8.632 0-15.626-7.004-15.626-15.616 0-8.643 7.004-15.636 15.626-15.636s15.626 6.994 15.626 15.636c0 8.612-7.004 15.616-15.626 15.616zM176.404 130.058l-0.174-62.566h-63.498c0 0-60.57 0-60.57 60.559v63.498l60.703-0.799c61.553 0 63.539-60.692 63.539-60.692zM128.369 97.772c8.632 0 15.626 7.004 15.626 15.616 0 8.643-6.994 15.636-15.626 15.636s-15.626-7.004-15.626-15.636c-0.010-8.622 6.994-15.616 15.626-15.616zM926.28 190.751l60.703 0.799v-63.498c0-60.559-60.57-60.559-60.57-60.559h-63.488l-0.164 62.566c0 0 1.976 60.692 63.519 60.692zM910.787 97.772c8.632 0 15.616 7.004 15.616 15.616 0 8.643-6.994 15.636-15.616 15.636s-15.626-7.004-15.626-15.636c0-8.622 7.004-15.616 15.626-15.616z" />
<glyph unicode="&#xe63b;" d="M152.699 377.436c150.313 149.043 339.159 207.821 530.555 126.249l81.336 105.83c-232.458 113.756-475.699 58.706-671.16-110.828-135.127-100.813 12.995-173.804 59.269-121.252zM697.027 361.82l244.070-28.396c35.512-4.137 53.821 19.538 40.827 52.879l-90.214 231.721c-12.995 33.28-41.114 37.315-62.761 8.817l-156.979-206.049c-21.668-28.436-10.445-54.856 25.057-58.972z" />
<glyph unicode="&#xe63c;" d="M226.56 288.184v-261.509c0-10.271-3.43-18.76-9.779-24.934-6.349-6.431-14.664-9.492-24.863-9.492-10.271 0-19.057 3.062-25.907 9.492-7.26 6.175-10.619 14.664-10.619 24.934v261.509h-97.997l101.908 344.259h-17.541c-11.172-38.595-20.603-69.642-27.935-94.259-6.625-24.515-14.039-47.78-20.388-70.175-7.27-22.098-12.165-36.116-12.646-40.899-4.475-14.612-14.1-21.678-29.256-21.678l-7.762 1.864c-14.111 5.212-21.012 14.367-21.012 27.402 0 3.574 0.471 6.502 1.946 9.431 0.983 2.519 3.912 11.172 7.342 25.846 3.973 14.572 9.216 32.655 15.636 53.709 6.349 21.381 13.21 44.534 20.398 69.356 7.393 24.975 14.1 48.998 22.415 72.151 4.895 17.736 15.575 33.915 32.195 47.882 16.476 14.49 33.669 21.084 51.62 21.084h119.921c18.575 0 36.598-6.595 52.654-21.084 15.657-14.049 26.911-30.147 33.178-47.882 6.697-23.163 13.629-47.176 20.408-72.151 6.912-24.822 14.244-47.974 20.111-69.356 6.205-21.053 11.663-39.137 15.514-53.709 3.83-14.674 6.339-23.327 7.752-25.846l1.884-7.69c0-15.77-7.332-24.996-21.443-29.041l-7.199-1.956c-15.575 0-25.344 7.066-29.204 21.678-1.116 4.782-5.437 18.79-11.254 40.899-6.748 22.395-13.742 45.65-21.504 70.175-7.823 24.535-16.957 55.665-28.15 94.321h-17.603l101.837-344.32h-96.451v-261.509c0-10.271-2.939-18.76-10.691-24.934-6.912-6.431-15.145-9.492-25.364-9.492-10.68 0-18.565 3.062-25.272 9.492-6.359 6.175-9.226 14.664-9.226 24.934v261.499h-17.654zM236.175 755.671c20.562 0 38.154 6.738 51.784 20.818 14.090 14.387 21.432 32.266 21.432 53.842 0 20.541-7.342 38.134-21.432 52.664-13.548 14.95-31.222 22.395-51.784 22.395-21.852 0-39.997-7.434-55.091-22.395-14.612-14.449-21.791-32.123-21.791-52.664 0-21.565 7.178-39.455 21.862-53.842 15.094-14.080 33.249-20.818 55.020-20.818z" horiz-adv-x="480" />
<glyph unicode="&#xe63d;" d="M573.326 939.999c-302.835 5.966-552.182-180.682-556.82-416.903-1.589-82.054 26.579-159.34 76.685-225.553v0c86.361-110.755-7.821-301.376-7.821-301.376l277.914 119.77c59.919-18.891 124.939-29.958 193.139-31.283 302.901-5.966 552.182 180.614 556.82 416.837 4.705 236.222-237.020 432.48-539.92 438.511zM330.475 444.354c-37.317 0-67.606 30.225-67.606 67.606 0 37.317 30.225 67.606 67.606 67.606 37.315 0 67.539-30.29 67.539-67.606 0-37.381-30.225-67.606-67.539-67.606zM555.631 444.354c-37.317 0-67.539 30.225-67.539 67.606 0 37.317 30.223 67.606 67.539 67.606s67.606-30.29 67.606-67.606c-0.066-37.381-30.291-67.606-67.606-67.606zM780.785 444.354c-37.315 0-67.606 30.225-67.606 67.606 0 37.317 30.291 67.606 67.606 67.606s67.606-30.29 67.606-67.606c0-37.381-30.223-67.606-67.606-67.606z" horiz-adv-x="1130" />
<glyph unicode="&#xe63e;" d="M1410.564 807.259c0-69.578-56.404-125.983-125.983-125.983s-125.983 56.404-125.983 125.983c0 69.578 56.404 125.983 125.983 125.983s125.983-56.404 125.983-125.983zM297.771 67.855c0-69.578-56.404-125.983-125.981-125.983s-125.983 56.404-125.983 125.983c0 69.578 56.404 125.981 125.983 125.981s125.981-56.404 125.981-125.981zM2537.154 67.855c0-69.57-56.395-125.963-125.965-125.963s-125.963 56.395-125.963 125.963c0 69.57 56.395 125.963 125.963 125.963s125.965-56.395 125.965-125.963zM706.216 706.621c0 41.289 33.52 74.772 74.809 74.772 41.25 0 74.754-33.484 74.754-74.772s-33.52-74.754-74.754-74.754c-41.307 0-74.809 33.465-74.809 74.754zM507.903 471.948c0-41.296-33.474-74.772-74.772-74.772s-74.772 33.474-74.772 74.772c0 41.296 33.474 74.772 74.772 74.772s74.772-33.479 74.772-74.772zM1866.305 706.621c0-41.296-33.474-74.772-74.772-74.772s-74.772 33.474-74.772 74.772c0 41.296 33.474 74.772 74.772 74.772s74.772-33.474 74.772-74.772zM2206.997 471.934c0-41.296-33.474-74.772-74.772-74.772s-74.772 33.474-74.772 74.772c0 41.296 33.474 74.772 74.772 74.772s74.772-33.474 74.772-74.772zM1356.502-58.11v683.47h-144.235l-0.732-573.75-127.242 298.34-129.397-59.558 153.651-348.498z" horiz-adv-x="2602" />
<glyph unicode="&#xe63f;" d="M512 945.103c-274.596 0-497.103-222.591-497.103-497.187 0-274.511 222.508-497.018 497.103-497.018s497.103 222.508 497.103 497.018c0 274.596-222.508 497.187-497.103 497.187zM525.895 764.626c14.151 16.538 32.992 24.81 57.715 26.002v1.194c18.841 0 34.1-7.076 45.865-20.035 10.656-10.571 15.345-24.723 15.345-42.37 0-22.336-8.185-41.178-23.444-57.715s-34.1-24.723-56.523-24.723h-1.279c-17.647 0-31.713 5.883-42.37 17.647s-16.538 27.109-16.538 47.058c0 18.841 7.076 36.487 21.228 52.941zM643.63 235.979c-31.799-35.295-67.093-64.791-104.774-87.040-37.68-22.422-65.899-34.1-83.631-34.1-12.873 0-23.531 3.495-30.521 11.764-8.27 8.185-11.85 22.336-11.85 42.286 0 23.531 2.302 47.145 7.076 70.589l50.64 214.322c2.387 11.85 3.581 20.035 3.581 24.81-15.345-5.883-36.573-21.228-63.598-45.95l-7.076-4.689-18.841 52.941 3.495 3.495c35.379 32.992 70.674 60.103 107.163 82.437 36.487 22.422 64.791 32.992 84.826 32.992 11.764 0 19.949-4.689 25.918-14.066 4.689-9.377 6.991-21.228 6.991-35.379 0-24.723-2.302-47.058-6.991-67.093l-54.22-221.401c-2.302-10.571-3.495-18.841-3.495-24.723v-5.797c3.495 1.194 12.873 6.991 29.412 17.647 16.453 10.571 29.497 21.142 40.068 31.799l5.883 4.689 21.142-44.673 2.387-4.774h-3.581z" />
<glyph unicode="&#xe641;" d="M528.476 750.111c44.892 0 90.665 42.404 90.665 87.286 0 44.902-43.561 90.634-88.463 90.634-44.882 0-89.528-46.817-89.528-91.699 0.010-44.872 42.455-86.221 87.327-86.221zM705.341 490.138c0 43.776 0 90.153 0 134.666 0 44.032 2.949 39.803 0 67.359-11.244 33.669-33.659 44.882-56.105 44.882-48.015 0-63.887 0-101.007 0-45.107 0-66.99 0.143-111.882 0.143-22.436 0-37.079 1.464-53.729-13.65-22.712-25.723-20.439-27.996-20.439-99.82 0-35.502 0-97.464 0-137.062 0-35.471-5.99-90.655 29.522-90.655 33.71 0 33.403 24.064 33.403 59.884 0 50.575-0.123 63.703-0.123 93.604 0 32.655-1.874 38.226 4.69 38.226 6.615 0 6.574-0.43 6.574-35.154 0-32.195-0.256-485.212-0.256-511.375 0-22.477 11.971-46.52 45.783-46.52 33.7 0 47.759 19.702 47.759 42.158 0 40.438 0 216.535 0 235.704 0 22.456 0.758 33.341 6.318 33.341 5.663 0 4.915-10.885 4.915-33.341 0-20.244 0-194.181 0-235.704 0-13.937 14.807-44.278 48.517-44.278 22.415 0 43.059 28.856 43.059 43.796 0 89.815 0.532 489.318 0.532 517.55 0 15.319-1.311 34.755 4.393 34.755 5.734 0 5.652-5.263 5.652-27.351 0-25.303 0-50.934 0-86.446 0-59.003 9.185-74.496 31.611-74.496 33.679 0.010 30.812 57.641 30.812 89.784z" />
</font>
</defs>
</svg>
