<?xml version="1.0" standalone="no"?>
<!DOCTYPE svg PUBLIC "-//W3C//DTD SVG 1.1//EN" "http://www.w3.org/Graphics/SVG/1.1/DTD/svg11.dtd" >
<svg xmlns="http://www.w3.org/2000/svg">
<metadata>
This is a custom SVG font generated by IcoMoon.
<iconset grid="16"></iconset>
</metadata>
<defs>
<font id="icons" horiz-adv-x="512" >
<font-face units-per-em="512" ascent="480" descent="-32" />
<missing-glyph horiz-adv-x="512" />
<glyph class="hidden" unicode="&#xf000;" d="M0,480L 512 -32L0 -32 z" horiz-adv-x="0" />
<glyph unicode="&#x260d;" d="M0,387.872c0,7.568, 2.384,13.76, 7.104,18.416c 4.816,4.864, 10.96,7.232, 18.448,7.232l 147.472,0 c-22.208-16.672-38.976-31.68-50.208-44.96
	l-5.12-6.176L 51.152,362.384 L 51.152,132 l 332.736,0 l0,28.56 l 51.216,42.096l0-96.224 c0-6.88-2.608-12.848-7.904-18.064c-5.312-5.056-11.216-7.664-17.664-7.664
	L 25.552,80.704 c-6.496,0-12.352,2.592-17.632,7.664C 2.624,93.6,0,99.568,0,106.432L0,387.872 z M 341.968,310.048c-56.336,0-97.648-6.8-123.888-20.832
	c-25.6-13.904-52.928-44.752-81.936-92.752c0,24.464, 5.44,51.344, 16.368,80.4c 5.456,14.656, 13.648,29.792, 24.576,45.216
	c 10.944,15.552, 22.224,28.208, 33.76,37.664c 14.352,11.872, 33.28,21.68, 56.848,29.328c 23.6,7.296, 48.288,11.040, 74.256,11.040L 341.952,480 l 169.936-127.76
	l-169.936-133.184L 341.952,310.048 z"  />
<glyph unicode="&#x2706;" d="M 294.304,185.376c 69.008,69.040, 94.064,112.752, 75.328,131.424l-5.072,5.12c-13.248,13.328-21.984,23.488-26.208,30.8
	c-4.64,7.856-5.472,19.36-2.48,34.368c 3.312,15.232, 13.808,34.016, 31.216,56.144c 7.216,9.008, 15.12,17.296, 23.664,24.912
	c 8.080,7.168, 21.872,10.848, 41.456,10.848c 5.088,0, 16.448-6.656, 33.84-19.712l 30-29.968c 20.496-20.432, 19.184-61.824-3.808-123.936
	c-23.008-62.144-66.448-124.64-130.224-187.824c-63.872-63.696-126.608-107.472-188.4-130.736c-61.664-23.424-102.752-25.040-123.12-4.464l-15.376,15.184
	l-15.376,14.848c-1.664,1.904-5.472,7.232-11.472,15.168c-4.608,6.912-7.312,12.624-7.936,17.6c-0.688,4.896-0.288,11.92, 0.944,21.504
	c 0.832,7.936, 4,15.504, 9.6,22.304c 6.784,8.544, 17.728,18.528, 32.896,29.984c 15.040,11.568, 27.088,19.392, 36,23.664
	c 11.488,5.632, 23.008,5.856, 34.528,1.344c 11.024-4.816, 18.496-8.576, 22.32-11.504c 5.12-4.272, 13.44-12.208, 24.864-23.712
	C 180.224,90.016, 224.512,115.648, 294.304,185.376z"  />
<glyph unicode="&#x2709;" d="M 475.152,385.552L 36.848,385.552 C 16.496,385.552,0,369.056,0,348.704l0-312.592 c0-20.368, 16.496-36.848, 36.848-36.848l 438.32,0 
		c 20.336,0, 36.848,16.464, 36.848,36.848L 512.016,348.704 C 512,369.056, 495.504,385.552, 475.152,385.552z M 439.136,341.76l-169.6-170.72
		c-2.816-2.816-7.296-4.336-12.288-4.336c-5.056,0-9.632,1.568-12.432,4.48L 76.512,341.76L 439.136,341.76 z M 160.672,192.608l-116.88-119.536L 43.792,311.072 
		L 160.672,192.608z M 77.072,43.056l 115.056,117.648l 20.8-21.072c 11.248-11.296, 27.44-17.776, 44.336-17.776s 32.928,6.4, 44.112,17.648l 20.4,20.544
		l 114.144-116.976L 77.072,43.072 z M 468.208,74.192l-114.864,117.616l 114.864,115.632L 468.208,74.192 z"  />
<glyph unicode="&#x2606;" d="M 105.248-7.376c-8.432,0-12.672,4.752-12.672,14.864c0,2.608, 0.16,4.752, 0.544,6.512l 26.416,153.632l-111.824,108.592
	C 2.656,282.048,0,287.040,0,291.056c0,7.984, 5.712,12.848, 17.008,14.304l 154.272,22.096l 69.424,139.872C 244.816,475.792, 249.744,480, 255.584,480
	c 6.272,0, 11.408-4.208, 15.36-12.672l 68.88-139.872l 154.24-22.096c 11.776-1.76, 17.664-6.512, 17.664-14.304c0-4.32-2.8-9.36-8.224-14.848
	l-111.776-108.592l 26.416-153.632c0-0.32, 0.080-1.216, 0.208-2.816c 0.256-1.456, 0.368-2.608, 0.368-3.696c0-10.112-4.272-14.864-12.704-14.864
	c-3.664,0-7.776,1.088-12.144,3.232l-138.288,72.544l-137.712-72.544C 113.456-6.288, 109.2-7.376, 105.248-7.376z M 67.808,272.432l 94.16-91.056
	l-22.576-129.344l 116.192,61.104l 116.256-61.104l-22.512,129.344l 94.16,91.056l-129.536,19.168l-58.368,117.424l-57.856-117.424L 67.808,272.432z"  />
<glyph unicode="&#x2607;" d="M0,290.272c0,8.064, 5.68,12.832, 17.056,14.368l 155.056,22.080l 69.728,140.56C 245.936,475.776, 250.912,480, 256.784,480l0-413.28 l-138.416-73.088
	c-4.336-2.208-8.624-3.36-12.672-3.36c-8.496,0-12.752,5.056-12.752,14.928c0,2.624, 0.256,4.832, 0.592,6.592l 26.544,154.56l-112.4,109.072
	C 2.624,281.28,0,286.176,0,290.272z"  />
<glyph unicode="&#x2195;" d="M 255.968,480l 117.376-185.648L 138.656,294.352 L 255.968,480z M 255.968-30.288L 138.656,156.56l 234.688,0 L 255.968-30.288z"  />
<glyph unicode="&#x2023;" d="M 414.752,244.656c 7.984-6.080, 11.84-13.488, 11.84-22.16c0-7.248-3.856-14.208-11.84-20.288L 49.408-24.896
	c-14.24-8.96-25.984-10.496-35.376-4.816C 4.688-23.632,0-12.336,0,4.016L0,442.8 c0,16.464, 4.688,27.744, 14.032,33.872
	c 9.392,5.648, 21.136,4.144, 35.376-4.912L 414.752,244.656z"  />
<glyph unicode="&#x2190;" d="M 96.144,223.808c0,11.344, 4.112,21.136, 12.4,29.472L 322.688,467.984c 7.84,7.888, 17.824,11.792, 30.032,11.792
	c 11.888,0, 21.632-3.904, 29.568-11.792l 24.768-24.8c 8.272-8.272, 12.384-18.352, 12.384-30c0-11.552-4.128-21.28-12.384-29.616l-159.936-159.76
	l 159.936-159.856c 8.272-8.24, 12.384-18.4, 12.384-30.128c0-11.408-4.128-21.28-12.384-29.456l-24.768-24.976
	c-7.936-7.664-17.68-11.648-29.568-11.648c-12.208,0-22.192,3.984-30.032,11.648L 108.544,193.664C 100.256,201.92, 96.144,211.856, 96.144,223.808z"  />
<glyph unicode="&#x2192;" d="M 419.312,223.968c0-11.344-4.112-21.136-12.384-29.456L 192.768-20.224C 184.944-28.096, 174.944-32, 162.736-32
	c-11.888,0-21.648,3.904-29.568,11.776l-24.752,24.832C 100.128,12.864, 96,22.96, 96,34.592c0,11.568, 4.128,21.296, 12.416,29.616l 159.904,159.76
	l-159.904,159.84C 100.128,392.048, 96,402.224, 96,413.936c0,11.408, 4.128,21.296, 12.416,29.456l 24.752,24.976C 141.088,476.016, 150.848,480, 162.736,480
	c 12.208,0, 22.208-3.984, 30.032-11.648l 214.144-214.256C 415.2,245.84, 419.312,235.888, 419.312,223.968z"  />
<glyph unicode="&#x2193;" d="M 255.984,60.688c-11.344,0-21.136,4.112-29.456,12.384L 11.808,287.232C 3.936,295.072, 0.016,305.072, 0.016,317.28
	c0,11.888, 3.904,21.632, 11.776,29.568l 24.816,24.752C 44.864,379.872, 54.96,384, 66.624,384c 11.568,0, 21.28-4.128, 29.6-12.4l 159.76-159.92l 159.856,159.92
	C 424.080,379.872, 434.256,384, 445.952,384c 11.408,0, 21.28-4.128, 29.456-12.4l 24.976-24.752c 7.664-7.936, 11.648-17.664, 11.648-29.568
	c0-12.208-3.968-22.208-11.648-30.048L 286.112,73.072C 277.856,64.8, 267.904,60.688, 255.984,60.688z"  />
<glyph unicode="&#x2716;" d="M0,223.952C0,295.040, 24.928,355.344, 74.8,405.36C 124.576,455.024, 185.008,480, 255.968,480c 70.992,0, 131.456-24.976, 181.248-74.64
	C 487.024,355.344, 512,295.040, 512,223.952c0-70.832-24.976-131.44-74.784-181.136C 387.424-7.104, 326.96-32, 255.968-32
	c-70.96,0-131.392,24.896-181.168,74.816C 24.928,92.512,0,153.12,0,223.952z M 46.56,223.952c0-57.408, 20.56-106.608, 61.552-147.76
	c 41.056-41.008, 90.416-61.664, 147.856-61.664c 57.536,0, 106.816,20.656, 147.888,61.664c 41.104,41.152, 61.648,90.352, 61.648,147.76
	c0,57.616-20.528,106.832-61.648,147.936c-41.072,41.008-90.352,61.76-147.888,61.76c-57.44,0-106.8-20.752-147.856-61.76
	C 67.12,330.784, 46.56,281.568, 46.56,223.952z M 130.064,153.76l 70.208,70.192l-70.208,70.080l 55.776,55.904l 70.128-70.080l 70.192,70.080l 55.712-55.904
	l-70.016-70.080l 70.016-70.192l-55.712-55.616l-70.192,70.048l-70.128-70.048L 130.064,153.76z"  />
<glyph unicode="&#x2714;" d="M 174.416,244.048l 50.224-138.032c0,0, 81.568,280.496, 210.208,373.984
		c-3.136-66.736-15.664-124.672, 6.272-195.904C 384.64,266.304, 268.544,65.968, 230.912-32c-53.344,93.504-116.096,164.736-160.016,187.008
		L 174.416,244.048z"  />
<glyph unicode="&#x2780;" d="M 480.912-22.704c0-5.104-3.712-9.296-8.368-9.296l-101.44,0 l0,150.048 l-107.584,0 L 262.448-32
		L 39.456-32 c-4.624,0-8.368,4.192-8.368,9.296L 31.088,225.568 c0,8.96, 8.368,18.688, 8.368,18.688S 246.128,472.848, 250.064,477.216s 9.376,2.96, 11.936,0.16
		c 2.544-2.832, 209.248-233.12, 209.248-233.12s 9.184-10.304, 9.664-18.688L 480.912-22.704 z"  />
<glyph unicode="&#x2781;" d="M 427.008,375.824c 8.592-8.688, 17.184-17.312, 25.776-25.84
		c-7.248,3.072-19.664,11.52-30.944,6.848c-77.056,26.016-109.568-2.768-114.224-5.056c 0.592-0.288, 101.744-30.656, 104.784-105.76
		c-8.88-7.28-2.688-20.016-6.032-30.96c-0.848,0.88-1.712,1.76-2.56,2.592c-9.008,24.32-90.848,108.048-120.56,102.8
		c 13.904-8.192, 102.688-112.352, 45.776-199.92c-1.312,12.832, 28.656,36.672-69.936,161.792c-0.56-0.272, 8.384-80.88-3.088-137.936
		c-22.64-112.336-111.44-182.576-165.888-175.968c 0.608,0.304, 1.168,0.576, 1.712,0.816c 19.968,21.584, 34.32,27.232, 55.568,47.856
		c 100.8,98, 84.448,272.464, 81.12,278.944C 130.16,184.096, 148.688,129.184, 143.424,124.8c-48.896,94.592, 37.52,187.104, 36.928,188.224
		c-39.408-4.432-121.136-78.16-121.136-77.36c 3.664,6.96, 17.44,27.936, 6.88,34.4c 2.96,12.96, 51.552,100.576, 134.752,84.64
		C 158.032,434.768, 64.656,396.384, 65.232,396.384C 68.496,403.824, 76.8,411.824, 87.536,418.688c 37.664,22.672, 145.712,14.496, 153.248-50.128
		c0,0.576-0.944,18.704-1.12,37.296c-3.056,39.776, 59.888,86.080, 132.336,71.328c-0.56-0.32-13.712-7.168-19.744-10.288
		c-6.944-4.896-3.936-16.96-11.184-18.048c-54.976-8.56-71.2-81.216-70.624-81.216C 342.16,451.408, 426.192,377.968, 427.008,375.824z"  />
<glyph unicode="&#x2782;" d="M 278,125.856L 234,125.856L 234,319.648L 278,319.648L 278,125.856 	zM 278.256,409.408L 278.256,437.344 l 21.376,0 L 299.632,480 l-87.232,0 l0-42.656 l 21.344,0 l0-27.936 C 121.856,398.144, 34.128,304.768, 34.128,189.856C 34.128,67.296, 133.472-32, 256-32
		s 221.872,99.296, 221.872,221.856C 477.872,304.768, 390.192,398.144, 278.256,409.408z M 256,6.464c-99.664,0-180.688,81.024-180.688,180.736
		C 75.312,286.8, 156.336,367.824, 256,367.824c 99.632,0, 180.72-81.024, 180.72-180.624C 436.72,87.504, 355.632,6.464, 256,6.464z"  />
<glyph unicode="&#x2783;" d="M 310.976,324.336L 119.488,431.68L 83.904,416.784l 135.040-141.84l-126.736-66l-68.624,27.888L0,226.8l 48.544-60.576
	l 9.28-76.944l 23.552,9.84l 28.048,68.816l 136.064,43.952L 252.16,16.32l 35.664,14.88l 57.216,212.064C 485.328,297.024, 512,361.024, 512,361.024
	S 447.632,386.848, 310.976,324.336"  />
<glyph unicode="&#x2784;" d="M 490.368,277.328L 490.368,320.864 l-21.648,0 L 468.72,384.672 l-21.744,0 L 446.976,428.864 l-21.616,0 l0-43.552 l-21.824,0 l0-65.168 
			l-21.52,0 l0-43.52 l-22.288,0 l0-258.56 L 512,18.064 L 512,277.328 L 490.368,277.328 z M 426.336,65.312l-43.072,0 L 383.264,108.32 l 43.072,0 L 426.336,65.312 z M 426.336,194.992l-43.072,0 l0,42.384 l 43.072,0 
			L 426.336,194.992 z M 491.12,130.064l-43.040,0 l0,43.008 l 43.040,0 L 491.12,130.064 zM0,429.952l0-411.2 l 40.704,0 l0,89.712 l 54.624,0 l0-89.712 l 210.768,0 l0,411.2 L0,429.952 z M 95.328,153.248L 40.704,153.248 
		l0,54.624 l 54.624,0 L 95.328,153.248 z M 95.328,240.944L 40.704,240.944 l0,54.624 l 54.624,0 L 95.328,240.944 z M 95.328,328.624L 40.704,328.624 L 40.704,383.232 l 54.624,0 L 95.328,328.624 z M 180.192,153.248L 125.568,153.248 
		l0,54.624 l 54.624,0 L 180.192,153.248 z M 180.192,240.944L 125.568,240.944 l0,54.624 l 54.624,0 L 180.192,240.944 z M 180.192,328.624L 125.568,328.624 L 125.568,383.232 l 54.624,0 L 180.192,328.624 z M 265.024,153.248L 210.4,153.248 
		l0,54.624 l 54.624,0 L 265.024,153.248 z M 265.024,240.944L 210.4,240.944 l0,54.624 l 54.624,0 L 265.024,240.944 z M 265.024,328.624L 210.4,328.624 L 210.4,383.232 l 54.624,0 L 265.024,328.624 z"  />
<glyph unicode="&#x2785;" d="M 494.8,223.216L 239.344-14.592c-16.272-16.32-42.704-16.32-59.056,0L 21.856,161.536
		c-16.352,16.32-31.056,57.456-14.784,73.776l 253.44,229.28C 276.464,480.64, 509.76,473.008, 509.76,473.008S 520.528,252.88, 494.8,223.216z
		 M 425.52,392.080c-17.024,17.024-44.624,17.024-61.696,0c-16.992-17.12-16.992-44.64,0-61.664c 17.072-17.024, 44.672-17.024, 61.696,0
		C 442.544,347.44, 442.544,374.96, 425.52,392.080z"  />
<glyph unicode="&#x2786;" d="M 200.928,480c 40.224-90.128-6.816-178.432, 49.536-269.2
		c-19.6-21.456, 6.704-52.496, 8.976-78.608c-3.408-12.832, 17.168-7.456, 17.984-17.104c-0.688-47.28, 77.568-104.96, 76.528-147.072l-72.032,0.128
		c 39.024,103.6-192,103.6-152.976,0L 56.896-31.856 c-0.704,34.16, 71.984,103.696, 76.496,143.536c-3.376,12.848, 17.184,7.456, 18,17.104
		c 0.048,27.312, 28.48,57.808, 9.024,78.624C 210.672,301.072, 166.544,387.68, 200.928,480 M 187.392,121.952l 36.048,0 
		c 2.976,20.448-4.112,33.376-4.544,51.28l-27.008,0 C 191.504,155.328, 184.416,142.4, 187.392,121.952M 384.32,380.32l-75.504,28.032l-12.064-7.472l 57.024-43.632l-42.16-31.264l-26.464,6.256l-7.968-4.96l 21.056-19.216
		l 7.744-27.36l 8,4.928l 6.224,26.464l 46.784,23.76l 13.632-70.56l 12.032,7.472l 8.592,80.112c 47.84,27.504, 53.872,52.24, 53.872,52.24
		S 430.224,410.832, 384.32,380.32"  />
<glyph unicode="&#x2787;" d="M 61.072,191.52L 102.032,191.52L 102.032,9.6L 61.072,9.6zM 422.336,175.2L 463.248,175.2L 463.248,9.584L 422.336,9.584zM 96.208,126.576L 429.536,126.576L 429.536,54.4L 96.208,54.4zM0,218.208L 255.296,438.4L 317.744,384.48L 317.744,411.136L 371.024,412.448L 371.024,338.304L 512,217.472L 425.616,216.24L 257.248,362.384L 92.928,217.472 		zM 195.696,180.896c0,0, 29.2,12.496, 68.208,16.352
			c 38.976,3.952, 103.344-2.336, 120.832-13.2c 17.552-10.944, 20.192-13.328, 17.008-24.24c-3.264-10.992-0.656-11.68-80.56-11.68
			c-79.968,0-115.744-6.288-124.928,5.472c-9.008,11.664-4.512,23.408-4.512,23.408L 195.696,180.896zM 177.424,174.24c0-17.12-13.84-31.024-30.976-31.024c-17.072,0-30.928,13.904-30.928,31.024
		c0,16.976, 13.84,30.944, 30.928,30.944C 163.584,205.168, 177.424,191.2, 177.424,174.24z"  />
<glyph unicode="&#x2788;" d="M 248.32,162.016L 296.208,162.016L 296.208-32L 248.32-32zM 248.32,480L 296.208,480L 296.208,432.192L 248.32,432.192zM 208.576,15.872L 335.936,15.872L 335.936-32L 208.576-32zM 499.616,382.96L 442.112,335.984L 130.384,335.984L 130.384,433.088L 442.112,433.088 	zM 12.384,250.112L 68.832,297.088L 374.848,297.088L 374.848,200.016L 68.832,200.016 	z"  />
<glyph unicode="&#x2789;" d="M 512,230.784c0,18.128-14.688,32.784-32.656,32.784l-15.28,0 L 421.392,399.040L 421.008,400.16c-6.544,15.424-17.648,27.056-30.592,35.888
		c-12.96,8.416-27.984,14.176-44.64,14.336l-184.48,0 C 144.64,450.224, 129.536,444.464, 116.656,436.048C 103.696,427.216, 92.592,415.584, 86.112,400.16L 85.68,399.040
		l-42.672-135.488L 32.688,263.552 C 14.624,263.568,0,248.912,0,230.784l0-146.64 l 31.024,0 l0-41.92 c0-24.688, 19.952-44.608, 44.576-44.608
		c 24.592,0, 44.544,19.92, 44.544,44.608l0,41.92 l 270.208,0 l0-41.92 c0-24.688, 19.952-44.608, 44.464-44.608c 24.704,0, 44.544,19.92, 44.544,44.608l0,41.92 L 512,84.144 
		L 512,230.784 z M 434.832,215.056c 20.432,0, 37.056-16.32, 37.056-36.784c0-20.432-16.624-36.896-37.056-36.896c-20.304,0-36.896,16.448-36.896,36.896
		C 397.936,198.752, 414.528,215.056, 434.832,215.056z M 133.216,381.6c 1.696,3.584, 5.968,8.768, 11.504,12.16c 5.824,4.016, 12.672,6.144, 16.592,5.968
		l 184.48,0 c 3.904,0.176, 10.768-1.952, 16.624-5.968c 5.552-3.392, 9.76-8.576, 11.536-12.16l 37.056-118.032L 96.048,263.568 L 133.216,381.6z M 75.616,141.392
		c-20.464,0-36.96,16.448-36.96,36.896c0,20.464, 16.48,36.784, 36.96,36.784c 20.336,0, 36.816-16.32, 36.816-36.784
		C 112.432,157.84, 95.952,141.392, 75.616,141.392z"  />
<glyph unicode="&#x2790;" d="M 113.536,296.224c 5.328,0, 5.328-2.672,0-8c-19.008-19.008-28.48-38.72-28.48-59.248l0-181.232 c0-19.36, 9.856-39.104, 29.632-59.248
	c 3.808-3.744, 3.44-5.712-1.136-5.712c-15.568,0-28.128,2.32-37.632,6.864c-9.488,4.608-19.136,12.32-29.008,23.36
	c-12.56,14.064-18.832,32.864-18.832,56.384l0,137.904 c0,23.568, 6.272,42.528, 18.832,57.008c 12.896,14.432, 24.864,23.392, 35.872,26.816
	C 94.16,294.512, 104.416,296.224, 113.536,296.224z M 392.752,291.12c 20.928-2.704, 41.44-7.248, 61.584-13.712c 19.76-6.064, 29.616-15.008, 29.616-26.784
	c0-28.096-11.552-82.032-34.752-161.872C 425.632,8.256, 405.296-32, 388.24-32c-54.72,0-109.44,7.952-164.144,23.888
	c-54.736,15.968-82.032,32.72-82.032,50.176l0,194.88 c0,5.328, 2.816,11.792, 8.512,19.392c 8,10.96, 26.784,27.344, 56.4,49.008
	c 11.376,8.384, 31.92,22.432, 61.568,42.176c 19.76,13.68, 39.504,32.672, 59.28,56.976c 4.928,6.112, 10.912,13.504, 17.952,22.256
	c 6.992,8.72, 13.008,16, 17.904,21.936c 4.944,5.888, 9.152,10.896, 12.576,15.072c 11.744,14.032, 19.568,19.008, 23.36,14.832
	c 18.24-29.264, 23.728-55.296, 16.496-78.048c-7.568-23.568-18.784-46.208-33.616-67.792c-15.216-22.064-22.8-33.504-22.8-34.256
	C 360.128,296.592, 371.12,294.112, 392.752,291.12z"  />
<glyph unicode="&#x2601;" d="M 503.76,261.68c 12.032-15.184, 10.88-28.944-3.392-40.864c-14.32-12.048-26.56-22.128-36.752-29.888c-10.624-8.368-25.12-15.808-43.616-22.4
	c-18.496-6.544-35.728-9.872-51.936-9.872c-36.736,0-78.48,13.168-125.648,39.488c-26.368,14.768-48.816,24.576-67.328,29.536
	c-19.28,5.072-36.784,5.072-52.592,0c-15.856-4.96-28.128-10.512-36.784-16.496C 75.152,204.272, 62.56,194.88, 47.824,182.4
	c-6.032-5.408-12.816-7.616-20.56-6.512c-7.792,0.896-14.128,4.224-18.928,9.904c-12.144,15.12-11.024,28.512, 3.328,40.72
	c 16.176,14.544, 27.872,24.56, 35.040,29.456c 7.232,4.752, 19.744,11.664, 37.888,20.24c 18.544,8.816, 35.76,13.328, 51.744,13.616
	c 16.112,0.352, 35.232-2.56, 57.472-9.072c 24.864-6.272, 50.128-16.912, 75.76-31.616c 26.416-14.768, 48.848-24.56, 67.36-29.344
	c 19.2-5.472, 36.768-5.472, 52.576,0c 15.856,4.784, 28.144,10.224, 36.768,16.272c 10.48,6.816, 23.104,16.432, 37.84,28.896
	C 478.448,277.056, 491.744,275.904, 503.76,261.68z M 464.128,120.272c 14.336,11.952, 27.632,10.8, 39.648-3.488
	c 5.216-5.984, 7.488-13.232, 6.464-21.232c-0.848-8.144-4.16-14.672-9.856-19.504c-14.32-12.048-26.56-21.984-36.752-29.888
	c-10.624-8.304-25.12-15.936-43.616-22.4c-18.496-6.512-35.728-9.84-51.936-9.84c-36.736,0-78.48,13.136-125.648,39.584
	c-26.368,14.576-48.816,24.416-67.328,29.472c-19.984,5.056-37.52,5.28-52.592,0.544c-17.008-5.536-29.408-10.8-37.392-16.56
	c-10.096-7.184-22.576-16.848-37.312-29.408c-6.032-5.2-12.816-7.456-20.56-6.336c-7.792,0.768-14.128,4.096-18.928,9.84
	c-12.144,15.056-11.024,28.544, 3.328,40.704c 16.176,14.56, 27.872,24.544, 35.040,29.312c 7.232,4.864, 19.744,11.744, 37.888,20.304
	c 18.544,8.848, 35.76,13.328, 51.744,13.664c 16.112,0.24, 35.232-2.512, 57.472-9.168c 24.864-6.208, 50.128-16.752, 75.76-31.584
	c 26.416-14.64, 48.848-24.576, 67.36-29.344c 19.2-5.344, 36.768-5.344, 52.576,0c 15.856,4.768, 28.144,10.192, 36.768,16.352
	C 436.768,98.016, 449.392,107.696, 464.128,120.272z M 47.824,327.184c-9.424-8.256-19.792-9.312-31.072-3.2C 5.456,330.16, 0.352,339.168, 1.44,350.816
	C 2.208,359.088, 5.632,365.92, 11.664,371.328C 30.144,387.056, 45.040,398.432, 56.32,405.28c 13.584,8.272, 30.4,15.728, 50.352,22.56
	c 22.64,7.488, 46.96,8.288, 72.944,2.24c 26.848-5.92, 56.768-18.544, 89.952-37.328c 33.968-18.736, 63.216-28.768, 87.728-29.952
	c 25.648-1.12, 44.432,1.92, 56.448,9.104c 13.632,8.336, 30.464,20.848, 50.368,37.888c 14.336,11.216, 27.632,10.032, 39.648-3.392
	c 12.032-15.056, 10.88-28.736-3.392-40.672c-45.968-41.68-90.080-62.304-132.304-62.304c-38.144,0-80.016,13.2-125.648,39.536
	c-26.368,14.72-48.816,24.416-67.328,29.52c-19.28,5.168-36.784,5.168-52.592,0C 106.672,367.392, 94.4,361.936, 85.728,355.984
	C 75.152,349.168, 62.56,339.6, 47.824,327.184z"  />
<glyph unicode="&#x2600;" d="M 342.368,309.936c 24.032-23.696, 35.984-52.496, 35.984-86.24c0-34.384-11.952-63.456-35.984-87.152c-24.336-23.728-53.2-35.568-86.736-35.568
		c-33.776,0-62.544,11.824-86.24,35.568c-23.728,23.696-35.568,52.768-35.568,87.152c0,33.728, 11.84,62.528, 35.568,86.24
		c 23.696,23.728, 52.464,35.568, 86.24,35.568C 289.168,345.504, 318.032,333.664, 342.368,309.936z M 268.32,386.208c-3.392-4.576-7.616-6.896-12.688-6.896
		c-5.024,0-9.216,2.32-12.624,6.896c-3.456,4.576-5.168,9.728-5.168,15.328L 237.84,451.568 c0,5.648, 1.696,10.72, 5.168,15.328
		c 3.392,4.576, 7.584,6.896, 12.624,6.896c 5.072,0, 9.296-2.32, 12.688-6.896c 3.392-4.608, 5.12-9.68, 5.12-15.328l0-50.032 
		C 273.44,395.936, 271.712,390.784, 268.32,386.208z M 268.688-18.864c-3.424-4.576-7.648-6.896-12.688-6.896s-9.296,2.32-12.688,6.896
		c-3.424,4.576-5.088,9.664-5.088,15.328l0,50.032 c0,5.6, 1.664,10.752, 5.088,15.328c 3.392,4.576, 7.648,6.928, 12.688,6.928
		s 9.264-2.336, 12.688-6.928c 3.408-4.576, 5.088-9.728, 5.088-15.328l0-50.032 C 273.776-9.184, 272.096-14.288, 268.688-18.864z M 140.32,357.408
		c 0.784-5.664-0.544-10.272-4.128-13.808c-3.584-3.584-8.128-4.96-13.84-4.096C 116.704,340.336, 111.92,342.752, 107.92,346.72L 72.528,382.112
		C 68.592,386.080, 66.16,390.912, 65.312,396.576C 64.448,402.192, 65.824,406.832, 69.392,410.384c 3.584,3.584, 8.16,4.912, 13.808,4.128
		C 88.912,413.6, 93.712,411.232, 97.712,407.264l 35.328-35.392C 137.072,367.904, 139.472,363.104, 140.32,357.408z M 378.24,370.48l 35.36,35.376
		c 4,3.952, 8.8,6.4, 14.432,7.184c 5.696,0.896, 10.288-0.512, 13.84-4.064c 3.584-3.552, 4.912-8.128, 4.096-13.824
		c-0.832-5.648-3.248-10.464-7.184-14.448l-35.392-35.376c-3.968-3.952-8.832-6.4-14.496-7.232c-5.632-0.816-10.24,0.528-13.808,4.112
		c-3.552,3.584-4.928,8.192-4.096,13.824C 371.856,361.68, 374.24,366.464, 378.24,370.48z M 371.376,88.752c-0.848,5.664, 0.48,10.288, 4.064,13.856
		c 3.584,3.6, 8.208,4.928, 13.84,4.048c 5.648-0.832, 10.464-3.216, 14.432-7.2l 35.392-35.408c 3.968-3.92, 6.368-8.768, 7.184-14.416
		c 0.896-5.664-0.48-10.256-4.064-13.824c-3.552-3.552-8.16-4.928-13.84-4.096c-5.648,0.848-10.464,3.264-14.432,7.216l-35.392,35.376
		C 374.592,78.256, 372.208,83.104, 371.376,88.752z M 133.424,75.696l-35.376-35.36c-3.984-4-8.832-6.4-14.48-7.248
		c-5.648-0.848-10.256,0.512-13.84,4.064c-3.52,3.584-4.912,8.224-4.064,13.84c 0.848,5.664, 3.248,10.496, 7.216,14.496l 35.376,35.36
		c 3.952,3.968, 8.8,6.368, 14.448,7.216c 5.664,0.848, 10.256-0.512, 13.84-4.096c 3.584-3.552, 4.96-8.208, 4.064-13.808
		C 139.808,84.464, 137.408,79.664, 133.424,75.696z M 93.104,235.888c 4.64-3.392, 6.928-7.584, 6.928-12.672c0-5.040-2.288-9.232-6.928-12.656
		c-4.56-3.472-9.648-5.136-15.296-5.136L 27.792,205.424 c-5.648,0-10.768,1.664-15.344,5.136c-4.56,3.424-6.896,7.616-6.896,12.656
		c0,5.088, 2.272,9.28, 6.896,12.672c 4.576,3.44, 9.712,5.104, 15.344,5.104l 50,0 C 83.456,240.992, 88.544,239.328, 93.104,235.888z
		 M 499.536,236.368c 4.608-3.456, 6.928-7.648, 6.928-12.672c0-5.072-2.32-9.296-6.928-12.688c-4.576-3.408-9.68-5.104-15.328-5.104
		l-50.048,0 c-5.584,0-10.704,1.696-15.312,5.104c-4.592,3.392-6.896,7.616-6.896,12.688c0,5.024, 2.304,9.216, 6.896,12.672
		c 4.608,3.44, 9.728,5.136, 15.312,5.136l 50.048,0 C 489.84,241.52, 494.96,239.808, 499.536,236.368zM 256-31.328c-6.8,0-12.72,3.184-17.12,9.152c-4.128,5.568-6.224,11.808-6.224,18.64l0,50.032 c0,6.832, 2.096,13.104, 6.224,18.64
		c 4.432,5.968, 10.352,9.152, 17.12,9.152s 12.688-3.184, 17.12-9.152c 4.128-5.536, 6.224-11.84, 6.224-18.64l0-50.032 
		c0-6.8-2.096-13.040-6.16-18.64C 268.688-28.144, 262.768-31.328, 256-31.328L 256-31.328z M 256,63.2c-2.064,0-5.104-0.496-8.192-4.688
		c-2.72-3.648-4.064-7.616-4.064-12.016l0-50.032 c0-4.432, 1.328-8.4, 4.064-12.016c 3.040-4.16, 6.128-4.624, 8.192-4.624
		s 5.104,0.464, 8.256,4.624c 2.672,3.616, 3.968,7.584, 3.968,12.016l0,50.032 c0,4.4-1.312,8.368-4.032,12.016
		C 261.104,62.704, 258.064,63.2, 256,63.2L 256,63.2z M 431.52,25.904c-1.264,0-2.576,0.112-3.904,0.304
		c-6.864,1.024-12.784,3.968-17.616,8.8l-35.344,35.392c-4.864,4.832-7.76,10.704-8.8,17.568c-1.088,7.344, 0.848,13.776, 5.648,18.576
		c 4.832,4.832, 11.040,6.8, 18.56,5.648c 6.864-1.008, 12.784-3.936, 17.584-8.8l 35.376-35.36c 4.864-4.816, 7.776-10.736, 8.848-17.6
		c 1.056-7.344-0.896-13.744-5.68-18.576C 442.24,27.904, 437.312,25.904, 431.52,25.904L 431.52,25.904z M 386.128,101.376
		c-2.768,0-4.928-0.864-6.768-2.736c-1.424-1.392-3.312-3.952-2.512-9.072c 0.656-4.48, 2.512-8.16, 5.696-11.312l 35.312-35.392
		c 3.12-3.12, 6.896-5.008, 11.392-5.664c 3.664-0.512, 6.736,0.224, 9.040,2.544c 1.456,1.408, 3.296,3.952, 2.544,9.040
		c-0.672,4.48-2.528,8.224-5.68,11.376l-35.344,35.392c-3.152,3.12-6.864,4.976-11.328,5.616
		C 387.648,101.248, 386.864,101.376, 386.128,101.376L 386.128,101.376z M 80.48,27.328c-5.76,0-10.672,1.968-14.656,5.952
		c-4.768,4.752-6.736,11.152-5.664,18.56c 1.024,6.8, 4,12.688, 8.8,17.584l 35.376,35.344c 4.864,4.832, 10.736,7.792, 17.6,8.816
		c 7.472,1.136, 13.712-0.832, 18.576-5.664c 4.768-4.8, 6.736-11.184, 5.648-18.56c-1.024-6.864-3.952-12.784-8.8-17.648l-35.376-35.312
		c-4.784-4.832-10.736-7.808-17.568-8.848C 83.024,27.392, 81.744,27.328, 80.48,27.328L 80.48,27.328z M 125.872,102.768
		c-0.752,0-1.52-0.064-2.304-0.192c-4.496-0.656-8.256-2.544-11.344-5.696l-35.376-35.312c-3.152-3.152-5.008-6.864-5.648-11.36
		c-0.784-5.12, 1.024-7.648, 2.48-9.12c 2.336-2.288, 5.344-3.040, 9.072-2.496c 4.512,0.704, 8.224,2.496, 11.344,5.68l 35.376,35.344
		c 3.12,3.152, 5.008,6.864, 5.68,11.328c 0.752,5.184-1.088,7.664-2.56,9.088C 130.784,101.856, 128.672,102.768, 125.872,102.768L 125.872,102.768z
		 M 255.632,95.424c-35.136,0-65.488,12.496-90.16,37.2c-24.704,24.672-37.168,55.328-37.168,91.072c0,35.168, 12.464,65.456, 37.168,90.192
		c 24.672,24.672, 55.008,37.2, 90.16,37.2c 34.832,0, 65.312-12.496, 90.624-37.168c 25.008-24.736, 37.68-55.040, 37.68-90.224
		c0-35.776-12.688-66.432-37.68-91.104C 320.976,107.92, 290.496,95.424, 255.632,95.424L 255.632,95.424z M 255.632,339.952
		c-32.064,0-59.776-11.408-82.304-33.952c-22.512-22.48-33.952-50.24-33.952-82.304c0-32.72, 11.44-60.704, 33.952-83.248
		c 22.512-22.512, 50.192-33.92, 82.304-33.92c 31.872,0, 59.76,11.44, 82.848,33.984c 22.752,22.512, 34.336,50.464, 34.336,83.184
		c0,32.064-11.6,59.776-34.368,82.272C 315.36,328.512, 287.504,339.952, 255.632,339.952L 255.632,339.952z M 77.808,199.872L 27.792,199.872 
		c-6.864,0-13.104,2.128-18.688,6.224C 3.152,210.528,0,216.432,0,223.216c0,6.8, 3.152,12.704, 9.104,17.168
		c 5.584,4.096, 11.904,6.16, 18.688,6.16l 50,0 c 6.832,0, 13.104-2.064, 18.64-6.128c 5.984-4.496, 9.168-10.4, 9.168-17.184
		c0-6.832-3.184-12.736-9.168-17.136C 90.912,202, 84.64,199.872, 77.808,199.872L 77.808,199.872z M 27.792,235.504
		c-4.496,0-8.4-1.36-12.048-4.064c-4.16-3.056-4.64-6.16-4.64-8.224c0-2.016, 0.48-5.104, 4.672-8.208
		c 3.616-2.704, 7.52-4.032, 12.016-4.032l 50,0 c 4.432,0, 8.368,1.328, 12.016,4.032c 4.16,3.088, 4.64,6.192, 4.64,8.224
		c0,2.048-0.48,5.136-4.64,8.24c-3.648,2.672-7.6,4.032-12.016,4.032L 27.792,235.504 L 27.792,235.504z M 484.208,200.352l-50.048,0 
		c-6.8,0-13.072,2.064-18.624,6.192c-5.952,4.432-9.104,10.368-9.104,17.152c0,6.768, 3.152,12.672, 9.104,17.136
		c 5.584,4.064, 11.824,6.16, 18.624,6.16l 50.048,0 c 6.832,0, 13.104-2.096, 18.624-6.128C 508.816,236.368, 512,230.464, 512,223.696
		c0-6.784-3.184-12.72-9.168-17.152C 497.312,202.416, 491.024,200.352, 484.208,200.352L 484.208,200.352z M 434.16,235.92
		c-4.416,0-8.368-1.328-12.016-4c-4.128-3.12-4.608-6.224-4.608-8.224c0-2.048, 0.48-5.136, 4.608-8.24
		c 3.648-2.704, 7.6-4, 12.016-4l 50.048,0 c 4.448,0, 8.4,1.296, 12.048,4c 4.16,3.088, 4.64,6.192, 4.64,8.24
		c0,2-0.48,5.152-4.64,8.224c-3.648,2.672-7.6,4-12.048,4L 434.16,235.92 L 434.16,235.92z M 385.792,332.32
		c-5.728,0-10.688,2.032-14.656,5.936c-4.8,4.8-6.752,11.232-5.664,18.576c 1.024,6.864, 3.984,12.768, 8.816,17.6l 35.344,35.36
		c 4.864,4.848, 10.752,7.792, 17.616,8.768c 7.648,1.12, 13.728-0.8, 18.56-5.616c 4.8-4.832, 6.736-11.232, 5.648-18.576
		c-0.976-6.832-3.936-12.736-8.768-17.568l-35.376-35.36c-4.832-4.864-10.752-7.824-17.616-8.832C 388.336,332.416, 387.024,332.32, 385.792,332.32
		L 385.792,332.32z M 431.12,407.744c-0.72,0-1.456-0.064-2.256-0.192c-4.48-0.608-8.224-2.48-11.344-5.616L 382.16,366.56
		c-3.136-3.184-5.008-6.864-5.68-11.344c-0.72-5.12, 1.088-7.664, 2.544-9.104c 2.32-2.304, 5.28-3.056, 9.072-2.48
		c 4.528,0.608, 8.176,2.48, 11.328,5.648l 35.408,35.36c 3.12,3.152, 4.992,6.896, 5.648,11.376c 0.8,5.088-1.056,7.632-2.512,9.072
		C 436.144,406.928, 433.952,407.744, 431.12,407.744L 431.12,407.744z M 125.504,333.696c-1.28,0-2.608,0.128-3.968,0.304
		C 114.704,334.992, 108.816,337.952, 103.968,342.816L 68.592,378.16c-4.8,4.832-7.776,10.784-8.768,17.616C 58.72,403.136, 60.688,409.536, 65.488,414.304
		c 4.8,4.8, 10.992,6.8, 18.544,5.696C 90.912,418.976, 96.8,416, 101.632,411.168l 35.376-35.344c 4.816-4.864, 7.792-10.784, 8.768-17.584
		C 146.88,350.848, 144.928,344.464, 140.144,339.664C 136.192,335.696, 131.28,333.696, 125.504,333.696L 125.504,333.696z M 80.144,409.168
		c-2.816,0-4.944-0.88-6.832-2.736C 71.888,405.008, 70.032,402.528, 70.832,397.376c 0.64-4.496, 2.48-8.208, 5.648-11.36l 35.392-35.344
		C 114.992,347.52, 118.704,345.664, 123.2,345.008c 3.824-0.576, 6.736,0.16, 9.072,2.496C 133.696,348.944, 135.52,351.456, 134.8,356.608
		c-0.672,4.464-2.512,8.208-5.648,11.36L 93.776,403.312C 90.624,406.464, 86.912,408.304, 82.416,408.992C 81.632,409.136, 80.88,409.168, 80.144,409.168
		L 80.144,409.168z M 255.632,373.76c-6.8,0-12.672,3.152-17.104,9.12c-4.128,5.536-6.192,11.84-6.192,18.64L 232.336,451.568 
		c0,6.832, 2.064,13.072, 6.192,18.656c 4.432,5.984, 10.32,9.104, 17.104,9.104s 12.72-3.12, 17.152-9.104
		c 4.128-5.584, 6.224-11.856, 6.224-18.656l0-50.032 c0-6.8-2.096-13.072-6.224-18.64C 268.352,376.928, 262.432,373.76, 255.632,373.76L 255.632,373.76z
		 M 255.632,468.224c-2.032,0-5.088-0.48-8.192-4.64c-2.704-3.616-4-7.568-4-12.016l0-50.032 c0-4.432, 1.312-8.368, 4-12
		c 3.088-4.192, 6.16-4.672, 8.192-4.672c 2.064,0, 5.136,0.48, 8.192,4.656c 2.736,3.648, 4.032,7.584, 4.032,12.016L 267.856,451.568 
		c0,4.448-1.312,8.4-4.032,12.048C 260.768,467.728, 257.696,468.224, 255.632,468.224L 255.632,468.224z"  />
<glyph unicode="&#x274f;" d="M 491.28,480L 20.672,480 C 9.216,480,0,470.704,0,459.328l0-470.608 C0-22.672, 9.216-32, 20.672-32l 253.6,0 l-0.256,199.664L 205.76,167.664 l0,75.152 l 69.136,0.096
	c0,0, 0.16,2.544, 0.16,66.4c0,93.12, 73.632,92.272, 73.632,92.272l 86.704,0 l0-72.4 c0,0-15.568-0.208-45.488-0.208
	c-36.752,0-36.256-32.032-36.256-32.032L 353.6,244.272l 76.336-0.176l-10.288-77.488l-66,0 L 353.568-32l 137.712,0 C 502.72-32, 512-22.672, 512-11.28
	L 512,459.328 C 512,470.704, 502.72,480, 491.28,480z"  />
<glyph unicode="&#x2750;" d="M 147.488,72.384c-4.928,0.56-10.688,0.784-17.328,0.784c-3.952,0.496-14,0-30.224-1.52c-15.952-2.272-32.32-5.92-49.008-11.024
		c-3.952-1.52-9.44-3.792-16.56-6.832c-7.152-3.312-14.368-7.968-21.712-14.064C 7.856,35.504, 3.776,30.336,0,24.752l0-20.736 
		C0-15.808, 15.952-32, 35.616-32l 194.24,0 c0,0.496, 0.144,0.912, 0.144,1.456c0,19.776-6.368,36.976-19.168,51.664
		C 197.312,35.024, 176.192,52.128, 147.488,72.384zM 187.504,276.512c0,30.672-7.824,61.664-23.344,92.864c-7.328,14.992-16.896,27.168-28.8,36.528C 123.184,414.832, 109.184,419.504, 93.392,420
		C 72.48,419.504, 55.104,410.976, 41.216,394.496C 29.552,377.28, 23.952,357.968, 24.48,336.656c0-28.128, 8.16-57.52, 24.496-87.904
		c 7.888-14.24, 18.144-26.272, 30.624-36.176c 12.48-9.904, 26.784-14.848, 42.832-14.848c 20.304,0.768, 37.232,8.112, 50.784,22.112
		c 6.48,9.872, 10.72,20.016, 12.592,30.416C 186.928,260.656, 187.504,269.408, 187.504,276.512zM0,68.224c 18.928,8.768, 38.288,15.808, 58.56,19.344c 27.248,4.064, 49.856,6.32, 67.888,6.88c-5.6,7.344-10.56,15.232-14.912,23.664
		c-5.056,8.176-7.584,17.952-7.584,29.408c0,6.848, 0.976,12.576, 2.896,17.184c 1.68,4.864, 3.248,9.312, 4.688,13.344
		c-8.736-1.008-17.008-1.488-24.784-1.488C 49.776,176.992, 21.152,188.16,0,209.008L0,68.224 zM 476.336,480l-92.112,0 L 256,480 L 125.744,480 L 35.616,480 C 15.952,480,0,463.824,0,444l0-39.024 L0,394.88 c 2.432,2.656, 4.32,5.408, 6.992,8
		c 21.92,18.208, 44.72,30.096, 68.336,35.68C 98.72,443.392, 120.656,445.808, 141.12,445.808l 154.272,0 l-47.632-28.096l-47.584,0 
		c 4.864-3.056, 10.32-7.456, 16.352-13.312c 5.808-6.048, 11.536-13.52, 17.072-22.4c 5.36-8.336, 10.080-18.224, 14.192-29.584
		c 3.408-11.456, 5.056-24.72, 5.056-39.904c-0.432-27.856-6.496-50.16-18.256-66.88c-5.76-8.096-11.856-15.552-18.272-22.368
		c-7.12-6.88-14.704-13.824-22.768-20.912c-4.592-4.8-8.8-10.288-12.72-16.336c-4.624-6.32-6.944-13.68-6.944-22.016
		c0-8.112, 2.352-14.832, 7.072-20.128c 4.048-5.040, 7.904-9.504, 11.664-13.28l 26.208-21.696c 16.24-13.408, 30.528-28.208, 42.768-44.416
		c 11.552-16.432, 17.584-38.016, 18.016-64.576c0-11.008-1.856-21.584-4.688-31.888l 201.392,0 C 496.016-32, 512-15.808, 512,4.016L 512,404.992 L 512,444 
		C 512,463.824, 496.016,480, 476.336,480z M 504.4,321.184l-80.944,0 l0-81.744 l-39.232,0 L 384.224,321.184 l-80.912,0 L 303.312,360.768 l 80.912,0 L 384.224,442.48 l 39.232,0 l0-81.712 l 80.944,0 L 504.4,321.184 z"  />
<glyph unicode="&#x2751;" d="M 476.336,480l-92.112,0 L 256,480 L 125.728,480 L 35.632,480 C 15.936,480,0,463.824,0,444l0-39.008 L0,4 C0-15.824, 15.936-32, 35.632-32l 440.72,0 
	C 496-32, 512-15.824, 512,4L 512,404.992 L 512,444 C 512,463.824, 496,480, 476.336,480z M 400.288,298.032c 0.128-3.184, 0.16-6.4, 0.16-9.632
	c0-98.4-74.88-211.792-211.744-211.792c-42.080,0-81.216,12.336-114.144,33.456c 5.824-0.672, 11.68-1.072, 17.728-1.072
	c 34.944,0, 66.992,11.936, 92.496,31.936c-32.608,0.608-60.064,22.16-69.52,51.712c 4.496-0.88, 9.168-1.312, 13.952-1.312
	c 6.816,0, 13.424,0.848, 19.632,2.528c-34.032,6.864-59.712,36.96-59.712,72.992c0,0.32,0,0.624,0,0.928c 10.096-5.536, 21.568-8.928, 33.792-9.328
	C 102.848,271.824, 89.76,294.608, 89.76,320.4c0,13.632, 3.664,26.368, 10.064,37.392c 36.688-45.008, 91.504-74.736, 153.392-77.792
	c-1.28,5.424-1.92,11.088-1.92,16.944c0,41.088, 33.312,74.448, 74.4,74.448c 21.52,0, 40.848-9.056, 54.432-23.488
	c 16.96,3.328, 32.848,9.568, 47.216,18.064c-5.488-17.392-17.28-31.968-32.72-41.152c 15.024,1.728, 29.296,5.728, 42.624,11.632
	c 0.064,0.064, 0.096,0.096, 0.176,0.144l 0.032-0.064c-0.080-0.032-0.112-0.032-0.208-0.064C 427.296,321.52, 414.72,308.432, 400.288,298.032z"  />
<glyph unicode="&#x2710;" d="M 407.008,132.576L 407.008,309.328L 320.032,221.712 		zM 286.336,187.84c-7.024-7.152-17.312-11.248-28.064-11.248
			c-10.864,0-21.152,4.128-28.304,11.344l-16.848,17.088l-87.936-89.904l 265.056,0 l-87.312,89.408L 286.336,187.84zM 258.272,200.816c 4.336,0, 8.352,1.472, 10.88,4.096l 122.896,123.6
			L 125.248,328.512 l 121.936-123.536C 249.792,202.336, 253.824,200.816, 258.272,200.816zM 108.368,311.152L 108.368,132.544L 196.096,222.256 		zM0,480l0-512 l 512,0 L 512,480 L0,480 z M 431.312,90.928L 84.16,90.928 L 84.16,352.736 l 347.152,0 L 431.312,90.928 z"  />
<glyph unicode="&#x2605;" d="M0,281.504c0,8.608, 5.664,13.616, 16.992,15.072l 154.384,23.184l 69.504,146.928C 244.896,475.664, 249.84,480, 255.68,480
	c 6.336,0, 11.36-4.336, 15.424-13.328l 68.976-146.912l 154.336-23.184c 11.68-1.84, 17.6-6.832, 17.6-15.072c0-4.704-2.672-9.728-8.224-15.552
	l-111.904-113.936l 26.416-161.36c0-0.416, 0.128-1.456, 0.288-2.912c 0.208-1.392, 0.336-2.976, 0.336-4.176c0-10.288-4.256-15.584-12.688-15.584
	c-3.68,0-7.744,1.12-12.128,3.536l-138.368,76.416l-137.856-76.416C 113.568-30.88, 109.312-32, 105.184-32c-8.448,0-12.656,5.264-12.656,15.584
	c0,2.832, 0.224,5.040, 0.576,7.072l 26.4,161.36l-111.84,113.936C 2.56,272.096,0,277.328,0,281.504z"  />
<glyph unicode="&#x2261;" d="M 512,369.248C 512,359.712, 502.448,352, 490.672,352L 21.328,352 C 9.552,352,0,359.712,0,369.248L0,398.752 C0,408.288, 9.552,416, 21.328,416l 469.328,0 
	C 502.448,416, 512,408.288, 512,398.752L 512,369.248 zM 512,49.248C 512,39.712, 502.448,32, 490.672,32L 21.328,32 C 9.552,32,0,39.712,0,49.248l0,29.504 C0,88.288, 9.552,96, 21.328,96l 469.328,0 
	C 502.448,96, 512,88.288, 512,78.752L 512,49.248 zM 512,209.248C 512,199.712, 502.448,192, 490.672,192L 21.328,192 C 9.552,192,0,199.712,0,209.248l0,29.504 C0,248.288, 9.552,256, 21.328,256l 469.328,0 
	C 502.448,256, 512,248.288, 512,238.752L 512,209.248 z"  />
<glyph unicode="&#x260c;" d="M 501.152,48.016c 13.008-14.736, 14.304-27.984, 3.904-40.016l-29.872-29.648c-15.552-13.808-30.304-13.808-44.144,0l-123.328,122.736
		c-31.6-18.128-65.36-27.2-101.264-27.2c-55.424,0-103.632,20.496-144.752,61.456C 20.544,176.288,0,224.48,0,279.584
		c0,55.152, 19.488,102.384, 58.464,141.664C 97.408,460.464, 144.576,480, 199.984,480c 54.912,0, 103.456-20.576, 145.408-61.584
		c 41.568-40.912, 62.288-88.88, 62.288-144.032c0-38.432-9.952-73.36-29.808-104.912L 501.152,48.016z M 101.968,377.216
		c-27.28-27.168-40.928-59.696-40.928-97.648c0-37.92, 14.688-71.456, 44.144-101.008c 29.456-29.216, 63.184-43.856, 101.28-43.856
		c 38.048,0, 70.752,13.632, 97.984,40.88c 27.28,27.056, 40.96,60.064, 40.96,98.8c0,37.472-14.72,70.96-44.112,100.144
		c-29.008,28.88-62.816,43.344-101.296,43.344C 161.872,417.888, 129.216,404.448, 101.968,377.216z"  />
<glyph unicode="&#x263b;" d="M 305.168,468.544c0,0-26.416,25.744-62.896,0c-37.376-6.8-124.064-37.392-40.784-180.144c0,0-1.68-51.008, 54.384-52.688
		c 56.096-1.68, 60.64,37.264, 61.184,47.6C 317.984,300.352, 387.808,380.208, 305.168,468.544zM 179.376,246.128L 256,194l 79.888,52.128c0,0, 103.28-43.808, 103.28-96.352c0-52.56,0-181.776,0-181.776L 72.832-32 L 72.832,145.408 
		C 72.832,145.408, 72.832,198.832, 179.376,246.128z"  />
<glyph unicode="&#x263a;" d="M 438,178.224l-45.008-37.216l-44,37.216c-3.76-1.68-32.688-9.856-36.096-11.552c 3.28-28.864, 2.864-160.336, 2.864-198.672L 512-32 
		c0,0,0,109.936,0,149.664S 438,178.224, 438,178.224zM 182.416,421.552c0,0-22.256,21.664-52.976,0c-31.472-5.728-104.48-31.488-34.352-151.712c0,0-1.408-42.944, 45.808-44.384
			c 47.232-1.424, 51.072,31.376, 51.536,40.080C 193.2,279.888, 252,347.136, 182.416,421.552zM 84.48,238.656l 56.512-51.648l 59.104,51.648c0,0, 81.888-42.64, 81.888-93.76c0-51.136,0-176.896,0-176.896L0-32 L0,140.64 
			C0,140.64,0,192.608, 84.48,238.656zM 429.376,354.256c0,0-19.936,19.44-47.536,0c-28.224-5.152-93.792-28.288-30.832-136.176c0,0-1.264-38.496, 41.072-39.808
	c 42.4-1.312, 45.872,28.144, 46.272,35.968C 439.024,227.104, 491.824,287.456, 429.376,354.256z"  />
<glyph unicode="&#x2191;" d="M 256.048,384c 11.344,0, 21.136-4.112, 29.456-12.384l 214.72-214.144C 508.096,149.616, 512,139.616, 512,127.408
	c0-11.888-3.904-21.632-11.776-29.568l-24.816-24.752c-8.256-8.288-18.336-12.4-30-12.4c-11.568,0-21.28,4.128-29.6,12.4l-159.76,159.92
	l-159.84-159.92c-8.256-8.288-18.416-12.4-30.128-12.4c-11.408,0-21.296,4.128-29.456,12.4l-24.976,24.752C 3.984,105.776,0,115.52,0,127.408
	c0,12.208, 3.984,22.208, 11.648,30.048L 225.92,371.6C 234.16,379.888, 244.112,384, 256.048,384z"  />
<glyph unicode="&#x273e;" d="M 99.28,246.688c 1.696,0, 3.136-0.624, 4.352-1.792c 1.184-1.216, 1.792-2.656, 1.792-4.368l0-35.808 
		c0-1.712-0.608-3.152-1.792-4.336c-1.216-1.2-2.656-1.792-4.352-1.792L 6.144,198.592 c-1.696,0-3.152,0.592-4.352,1.792
		C 0.592,201.568,0,202.992,0,204.72l0,35.808 c0,1.712, 0.592,3.152, 1.792,4.368c 1.2,1.168, 2.656,1.792, 4.352,1.792L 99.28,246.688 z M 48.608,368.976
		l 2.56-1.040l 80.848-46.56c 2.72-2.032, 3.392-4.8, 2.032-8.176l0-0.528 L 116.16,282c-2.064-2.736-4.784-3.424-8.176-2.064L 27.12,326.496
		C 24.384,328.544, 23.696,331.264, 25.072,334.672l 17.904,31.216c 1.376,2.048, 3.072,3.088, 5.104,3.088L 48.608,368.976 z M 112.576,165.84
		c 2.368,0, 4.080-1.024, 5.088-3.088l 17.92-31.2c 1.68-3.424, 1.024-6.144-2.048-8.208L 133.040,123.344 l-80.352-46.528
		c-3.392-1.376-6.128-0.688-8.176,2.032l-17.904,31.2c-1.696,3.424-1.008,6.144, 2.032,8.176l 0.512,0 l 80.336,46.592
		c 0.688,0.672, 1.536,1.024, 2.56,1.024L 112.576,165.84 z M 145.824,454.416c 2.384,0, 4.096-1.008, 5.12-3.072l0-0.496 l 46.56-80.352
		c 1.36-3.408, 0.672-6.128-2.032-8.176l-31.216-17.904c-3.408-1.712-6.144-1.024-8.192,2.032L 156.064,346.96 L 109.488,427.296
		C 108.144,430.704, 108.8,433.44, 111.552,435.472l 31.2,17.92c 0.672,0.672, 1.52,1.008, 2.576,1.008L 145.824,454.4 z M 164.256,102.4
		c 0.688,0, 1.536-0.368, 2.56-1.056l 0.496,0 l 30.704-17.888c 2.72-2.032, 3.408-4.784, 2.032-8.192l-46.544-80.848
		c-2.064-2.72-4.8-3.424-8.176-2.032l-31.232,17.888c-2.72,2.032-3.424,4.768-2.032,8.208l 46.576,80.832
		c 1.344,2.032, 3.056,3.088, 5.104,3.088L 164.256,102.4 z M 272.208,480c 1.696,0, 3.168-0.608, 4.336-1.792c 1.216-1.216, 1.792-2.672, 1.792-4.352
		l0-93.136 c0-1.696-0.576-3.152-1.792-4.352c-1.168-1.2-2.64-1.792-4.336-1.792l-35.808,0 c-1.712,0-3.168,0.592-4.352,1.792
		c-1.184,1.2-1.792,2.656-1.792,4.352L 230.256,473.872 c0,1.68, 0.608,3.136, 1.792,4.352C 233.232,479.408, 234.672,480, 236.384,480L 272.208,480 z
		 M 275.28,73.2c 1.696,0, 3.136-0.576, 4.352-1.76c 1.184-1.2, 1.776-2.656, 1.776-4.352l0-93.12 c0-1.712-0.592-3.136-1.776-4.336
		c-1.216-1.2-2.656-1.792-4.352-1.792l-35.808,0 c-1.728,0-3.168,0.592-4.352,1.792c-1.216,1.2-1.792,2.624-1.792,4.336l0,93.12 
		c0,1.696, 0.592,3.152, 1.792,4.352c 1.184,1.184, 2.624,1.76, 4.352,1.76L 275.28,73.2 z M 364.832,455.968l 2.56-1.040l 31.2-17.904
		c 2.736-2.032, 3.408-4.768, 2.032-8.176l-46.528-80.848c-2.064-2.72-4.8-3.408-8.208-2.032l-0.496,0 l-30.704,17.904
		c-2.736,2.032-3.44,4.768-2.048,8.176l 46.56,80.848c 1.344,2.032, 3.056,3.072, 5.104,3.072L 364.832,455.968 z M 351.52,103.92
		c 2.384,0, 4.080-1.024, 5.104-3.072l0-0.528 l 46.576-80.32c 1.344-3.408, 0.704-6.128-2.048-8.176l-31.216-17.936
		c-3.424-1.664-6.112-1.008-8.192,2.080l0,0.496 L 315.2,76.816c-1.376,3.392-0.688,6.128, 2.032,8.176l 31.2,17.904
		c 0.704,0.704, 1.568,1.024, 2.56,1.024L 351.52,103.92 z M 463.056,371.504c 2.384,0, 4.112-1.008, 5.104-3.056l 17.904-31.2
		c 1.712-3.424, 1.024-6.144-2.032-8.192l-0.512,0 L 403.2,282.48c-3.408-1.344-6.144-0.688-8.176,2.048l-17.904,31.216
		c-1.728,3.392-1.040,6.144, 2.032,8.192l 0.496,0 l 80.336,46.544c 0.656,0.688, 1.536,1.008, 2.56,1.008L 463.056,371.488 z M 402.192,168.368l 2.576-1.008
		l 80.816-46.56c 2.736-2.048, 3.424-4.768, 2.048-8.176l-17.888-31.2c-2.096-2.752-4.8-3.44-8.208-2.048l-80.832,46.544
		c-2.768,2.032-3.424,4.784-2.080,8.192l0,0.512 l 17.904,30.688c 1.392,2.048, 3.088,3.056, 5.136,3.056L 402.192,168.368 z M 506.064,249.248
		c 1.664,0, 3.136-0.624, 4.336-1.792c 1.184-1.2, 1.792-2.64, 1.792-4.352l0-35.808 c0-1.712-0.608-3.152-1.792-4.336
		c-1.184-1.216-2.656-1.792-4.336-1.792l-93.12,0 c-1.712,0-3.168,0.576-4.368,1.792c-1.2,1.184-1.76,2.624-1.76,4.336l0,35.808 
		c0,1.712, 0.56,3.152, 1.76,4.352c 1.2,1.184, 2.656,1.792, 4.368,1.792L 506.064,249.248 z"  />
<glyph unicode="&#x2636;" d="M 0.016,11.008L 0.016,389.248 c0,11.984, 4.096,22.24, 12.32,30.768c 8.208,8.528, 18.448,12.64, 30.768,12.288l 69.248,0 L 112.352,464.064 
		c0,4.784, 1.552,8.56, 4.624,11.28C 120.064,478.080, 123.824,479.632, 128.272,479.952C 132.688,480.288, 136.48,478.736, 139.536,475.344
		c 3.088-3.408, 4.64-7.168, 4.64-11.28l0-31.776 l 95.92,0 L 240.096,464.064 c0,4.784, 1.536,8.56, 4.624,11.28C 247.792,478.080, 251.552,479.632, 256,479.952
		c 4.448,0.336, 8.208-1.216, 11.296-4.608c 3.072-3.408, 4.624-7.168, 4.624-11.28l0-31.776 l 95.936,0 L 367.856,464.064 c0,4.784, 1.52,8.56, 4.608,11.28
		c 3.056,2.736, 6.832,4.288, 11.296,4.608c 4.416,0.336, 8.192-1.216, 11.248-4.608c 3.104-3.408, 4.64-7.168, 4.64-11.28l0-31.776 l 69.248,0 
		c 11.984,0, 22.24-4.080, 30.784-12.288C 508.224,411.808, 512.336,401.552, 512,389.248l0-378.224 c0-11.92-4.112-22.176-12.336-30.736
		c-8.192-8.544-18.464-12.64-30.784-12.304L 42.080-32.016 c-11.984,0-22.224,4.080-30.784,12.304C 2.752-11.504-0.336-1.232, 0.016,11.008L 0.016,11.008
		z M 32.864,11.008c0-3.424,0-6.128, 2.032-8.176c 2.048-2.096, 4.784-3.072, 8.208-3.072l 426.8,0 c 3.44,0, 6.176,0.992, 8.24,3.072
		c 2.048,2.048, 3.056,4.752, 3.056,8.176L 481.2,389.248 c0,3.424-1.008,6.128-3.056,8.224c-2.064,2.048-4.8,3.088-8.24,3.088l-69.232,0 l0-31.776 
		c0-4.832-1.536-8.592-4.624-11.312c-3.072-2.704-6.848-4.288-11.28-4.624c-4.432-0.336-8.208,1.2-11.28,4.624
		c-3.056,3.424-4.624,7.184-4.624,11.312L 368.864,400.544 l-95.936,0 l0-31.776 c0-4.832-1.536-8.592-4.608-11.312c-3.072-2.704-6.848-4.288-11.296-4.624
		c-4.448-0.336-8.208,1.2-11.264,4.624c-3.088,3.424-4.64,7.184-4.64,11.312L 241.12,400.544 L 145.2,400.544 l0-31.776 c0-4.832-1.536-8.592-4.624-11.312
		C 137.504,354.752, 133.744,353.168, 129.296,352.848C 124.848,352.496, 121.088,354.048, 118,357.456C 114.944,360.896, 113.392,364.64, 113.392,368.768L 113.392,400.544 L 44.128,400.544 
		c-3.424,0-6.16-1.040-8.208-3.088c-2.048-2.080-3.056-4.8-3.056-8.224L 32.864,11.008 L 32.864,11.008z M 111.84,240.112l0,48.16 l 64.128,0 l0-48.16 L 111.84,240.112 z
		 M 111.84,160.16l0,48.208 l 64.128,0 l0-48.208 L 111.84,160.16 z M 111.84,80.256l0,48.128 l 64.128,0 l0-48.128 L 111.84,80.256 z M 224.192,240.112l0,48.16 l 64.128,0 l0-48.16 L 224.192,240.112 z
		 M 224.192,160.16l0,48.208 l 64.128,0 l0-48.208 L 224.192,160.16 z M 224.192,80.256l0,48.128 l 64.128,0 l0-48.128 L 224.192,80.256 z M 336.544,240.112l0,48.16 l 64.128,0 l0-48.16 L 336.544,240.112 z
		 M 336.544,160.16l0,48.208 l 64.128,0 l0-48.208 L 336.544,160.16 z M 336.544,80.256l0,48.128 l 64.128,0 l0-48.128 L 336.544,80.256 z"  />
<glyph unicode="&#x2637;" d="M 455.136,423.104c 15.904,0, 29.36-5.488, 40.384-16.496C 506.496,395.6, 512,382.16, 512,366.224l0-341.328 c0-15.168-5.504-28.448-16.464-39.792
		C 484.496-26.32, 471.040-32, 455.136-32L 56.912-32 c-15.184,0-28.448,5.68-39.84,17.088C 5.696-3.568,0,9.712,0,24.896L0,366.224 
		c0,15.936, 5.696,29.376, 17.056,40.368c 11.392,11.008, 24.656,16.496, 39.84,16.496l 26.16,0 l0-56.88 l 91.008,0 L 174.064,423.104 l 164.976,0 l0-56.88 l 91.008,0 L 430.048,423.104 L 455.136,423.104 z
		 M 455.136,24.896L 455.136,252.432 L 56.912,252.432 l0-227.536 L 455.136,24.896 z M 147.92,480l0-96.704 l-39.84,0 L 108.080,480 L 147.92,480 z M 403.936,480l0-96.704 l-39.84,0 L 364.096,480 L 403.936,480 z"  />
<glyph unicode="&#x20;" horiz-adv-x="256" />
</font>
</defs>
</svg>
